アットウィキロゴ
50th Memorial Songs -Beginning Story-
BEMANI Sound Team

BASIC

Level: 5
BPM: 135
Notes: 357

Although this song has no BPM change, I used BPM change for convenience.
BPM 135 × 32/23 = BPM 187.8

1
口口口口 |(135)----|
口口口口 |----|
口口口口 |----|
口口口口 |----|
2
①口口① |(187.8)①---|
口口口口 |----|
口口口口 |----|
口口口口 |----|
3
口①①口 |①---|
口②②口 |----|
口口口口 |②---|
口口口口 |----|
4
口口口口 |①---|
口口口口 |----|
口①①口 |②---|
口②②口 |----|
5
口口口口 |----|
口口口口 |①---|
①口口① |----|
口口口口 |----|
6
口口口口 |(270)----|
口口口口
口口口口
口口口口
7
口口口口 |(135)①---|
③③③③ |②---|
②口口② |③---|
①口口① |----|
8
③③③③ |①---|
口②②口 |②---|
口①①口 |③---|
口口口口 |----|
9
口口口口 |①---|
口口口口 |----|
口①①口 |----|
口②②口 |--②-|
10
口口口口 |①---|
②口口② |----|
③①①③ |②---|
口口口口 |③---|
11
口口口口 |①---|
口口口口 |----|
口①①口 |----|
口②②口 |--②-|
12
口口口口 |①---|
口口口口 |----|
口①①口 |----|
口口口口 |----|
13
④③②① |①---|
口口口口 |②---|
口口口口 |③---|
口口口口 |④---|
14
口口口口 |①---|
①②③④ |②---|
口口口口 |③---|
口口口口 |④---|
15
口口口口 |①---|
口口口口 |②---|
④③②① |③---|
口口口口 |④---|
16
口口口口 |①---|
口口口口 |②---|
口口口口 |③---|
①②③口 |----|
17
口口口口 |①---|
①口口① |②---|
②口口② |③---|
③口口③ |----|
18
口③③口 |①---|
口②②口 |②---|
口①①口 |③---|
口口口口 |----|
19
①口口① |①---|
②口口② |②---|
③口口③ |③---|
④口口④ |④---|
20
口口口口 |①---|
口①①口 |②---|
口②②口 |③---|
口③③口 |----|
21
口口口口 |①---|
③③③③ |②---|
②口口② |③---|
①口口① |----|
22
③③③③ |①---|
口②②口 |②---|
口①①口 |③---|
口口口口 |----|
23
口口口口 |①---|
口口①口 |----|
口②口口 |②---|
口口口口 |----|
24
口口口口 |①---|
口口口口 |----|
口②②口 |②---|
①③③口 |③---|
25
口口口口 |①---|
口①口口 |----|
口口②口 |②---|
口口口口 |----|
26
口口口口 |①---|
口口口口 |----|
口③③口 |②---|
口②②① |③---|
27
口口②① |①---|
口口口口 |----|
口口口口 |②---|
口口口口 |----|
28
②①口口 |①---|
口口口口 |----|
口口口口 |②---|
口口口口 |----|
29
口口口口 |①---|
口①①口 |----|
口②②口 |②---|
口口口口 |----|
30
口口口口 |①---|
口口口口 |----|
口口口口 |----|
口①①口 |----|
31
口口口口 |①---|
口口口口 |----|
口口口口 |②---|
①②口口 |----|
32
口口口口 |①---|
口口口口 |----|
口口口口 |②---|
口口①② |----|
33
口口口口 |①---|
口②②口 |----|
口①①口 |②---|
口口口口 |----|
34
口①①口 |①---|
口口口口 |----|
口口口口 |----|
口口口口 |----|
35
①口口① |①---|
口口口口 |----|
口口口口 |----|
口口口口 |----|
36
③口口③ |①---|
口②②口 |②---|
口①①口 |③---|
口口口口 |----|
37
口口①口 |①---|
口②口口 |②---|
口口③口 |③---|
口④口口 |④---|
38
口④口口 |①---|
口口③口 |②---|
口②口口 |③---|
口口①口 |④---|
39
口口①口 |①---|
口②口口 |②---|
口口③口 |③---|
口④口口 |④---|
40
口④口口 |①---|
口口③口 |②---|
口②口口 |③---|
口口①口 |④---|
41
②②①① |①---|
口口口口 |----|
口口口口 |②---|
口口口口 |----|
42
口口口口 |①---|
口口口口 |----|
口①①口 |----|
口①①口 |----|
43
口口口口 |①---|
②口口② |②---|
①③③① |③---|
口③③口 |----|
44
①口口① |①---|
②口口② |②---|
③口口③ |③---|
④口口④ |④---|
45
口口口口 |①---|
口①①口 |----|
口②②口 |②---|
口口口口 |----|
46
口口口口 |①---|
口口口口 |----|
口口口口 |----|
口①①口 |----|
47
口口③③ |①---|
口口②② |②---|
口口①① |③---|
口口口口 |----|
48
③③口口 |①---|
②②口口 |②---|
①①口口 |③---|
口口口口 |----|
49
口口口口 |①---|
口①①口 |----|
口②②口 |②---|
口口口口 |----|
50
③③③③ |①---|
②口口② |----|
口口口口 |②---|
口①①口 |③---|
51
口口口口 |----|
口口口口 |----|
口口口口 |----|
口口口口
52
口口口口 |①---|
口②①口 |②---|
口④③口 |③---|
口口口口 |④---|
53
②②①① |①---|
口口口口 |----|
口口口口 |②---|
口口口口 |----|
54
口口口口 |①---|
口①②口 |②---|
口③④口 |③---|
口口口口 |④---|
55
①①②② |①---|
口口口口 |----|
口口口口 |②---|
口口口口 |----|
56
口口口口 |①---|
口④③口 |②---|
口②①口 |③---|
口口口口 |④---|
57
口口口口 |①---|
口口口口 |----|
口口口口 |②---|
②②①① |----|
58
口口口口 |①---|
口③④口 |②---|
口①②口 |③---|
口口口口 |④---|
59
口口口口 |①---|
口口口口 |----|
口口口口 |②---|
①①②② |----|
60
③口口③ |①--②|
口②②口 |--③-|
①口口① |----|
口口口口 |----|
61
口口口口 |①--②|
①口口① |--③-|
口②②口 |----|
③口口③ |----|
62
口口口口 |①---|
口口口口 |----|
②②②② |②---|
①①①① |----|
63
口口口口 |①---|
①①①① |----|
口口口口
口口口口

②②②②
口③③口
口③③口 |②---|
口口口口 |--③-|
64
口口口口 |----|
口口口口 |----|
口口口口 |----|
口口口口 |----|
65
口①①口 |①---|
口②②口 |②---|
口③③口 |③---|
口④④口 |④---|
66
①口口① |①---|
②口口② |②---|
③口口③ |③---|
④口口④ |④---|
67
口①口① |①---|
口②口② |②---|
口③口③ |③---|
口④口④ |④---|
68
①口①口 |①---|
②口②口 |②---|
③口③口 |③---|
④口④口 |④---|
69
口口①① |①---|
口口②② |②---|
口口③③ |③---|
口口④④ |④---|
70
①①口口 |①---|
②②口口 |②---|
③③口口 |③---|
④④口口 |④---|
71
①①①① |①---|
②②②② |②---|
③③③③ |③---|
④④④④ |④---|
72
①①①① |①---|
②②②② |②---|
③③③③ |③---|
④④④④ |④---|

accuracy: 100%
最終更新:2022年06月16日 15:05