アットウィキロゴ
50th Memorial Songs -Beginning Story-
BEMANI Sound Team

ADVANCED

Level: 7
BPM: 135
Notes: 573

Although this song has no BPM change, I used BPM change for convenience.
BPM 135 × 32/23 = BPM 187.8

1
口口口口 |(135)----|
口口口口 |----|
口口口口 |----|
口口口口 |----|
2
口口①口 |(187.8)①---|
口①②口 |--②-|
口口①口
口①口口

口口口口
口口口口
口③④口 |③---|
口口口口 |--④-|
3
③口口② |①-②-|
⑤①口④ |③-④-|
⑦口口⑥ |⑤-⑥-|
口口口⑧ |⑦-⑧-|
4
口口⑧口 |①-②-|
口⑦⑥口 |③-④-|
口⑤④口 |⑤-⑥-|
①③②口 |⑦-⑧-|
5
③①口② |①-②-|
口口口口 |③---|
口口口口 |----|
口口口口 |----|
6
口口口口 |(270)----|
口口口口
口口口口
口口口口
7
口口口口 |(135)①-②-|
口口口⑦ |③-④-|
④⑥⑤③ |⑤-⑥-|
口②①口 |⑦---|
8
①口口② |①---|
口①②口 |②---|
口口口口 |③---|
③口口③ |----|
9
口口口口 |①---|
口①口① |----|
口口①② |----|
口口①口 |--②-|
10
口口口口 |①---|
口①①口 |----|
口①①口
口口口口

口②口②
口口口口
口③口③ |②---|
口口口口 |③---|
11
口口口口 |①---|
口①①口 |----|
口②②口 |----|
口②口口 |--②-|
12
口①①口 |①---|
口①口口 |----|
口口口口 |----|
口口口口 |----|
13
⑤口口⑤ |①-②-|
口④②口 |③-④-|
口口口口 |⑤---|
⑥③①⑥ |⑥---|
14
⑥⑦⑦⑤ |①②③④|
口④③口 |⑤-⑥-|
口②①口 |⑦---|
口⑧⑧口 |⑧---|
15
口③③口 |--①-|
②口口① |②--③|
口②①口
口口口口

④口口④
口口口口
口⑥⑤口 |-④--|
⑥口口⑤ |⑤-⑥-|
16
③④④③ |-①-②|
②口口① |--③-|
②口口① |④---|
口口口口 |----|
17
④④③③ |①---|
⑤⑤②② |②-③-|
⑥⑥⑦⑦ |④-⑤-|
口①①口 |⑥-⑦-|
18
②④④② |①-②-|
口口口口 |③-④-|
口口口口
③①①③

⑥口口⑥
⑥口口⑥
口⑤⑤口 |⑤---|
口口口口 |⑥---|
19
⑧⑧⑥⑥ |①-②-|
⑦⑦⑤⑤ |③-④-|
④④②② |⑤-⑥-|
③③①① |⑦-⑧-|
20
口④③口 |①-②-|
④口口③ |③---|
口②②口 |④---|
口①①口 |----|
21
口口口口 |①-②-|
口口口⑦ |③-④-|
④⑥⑤③ |⑤-⑥-|
口②①口 |⑦---|
22
①口口② |①---|
口①②口 |②---|
口口口口 |③---|
③口口③ |----|
23
③口③口 |①---|
②口②口 |--②-|
口①口① |③---|
④口④口 |--④-|
24
口口口口 |--①-|
口②口② |②---|
口①口① |----|
口口口口 |----|
25
口③口③ |①---|
口②口② |--②-|
①口①口 |③---|
口④口④ |--④-|
26
口口口口 |--①-|
②口②口 |②---|
①口①口 |----|
口口口口 |----|
27
①口口① |①---|
②口口② |②---|
③口口③ |③---|
④口口④ |④---|
28
口口口口 |①---|
口①①① |②---|
口口②口
口口②口

③口口③
④口口④
口口口口 |③---|
口口口口 |④---|
29
口②口口 |①---|
口①①口 |②---|
③①①③ |③---|
④口口④ |④---|
30
口口口口 |----|
②口口① |----|
②口口① |①---|
口口口口 |②---|
31
③③③③ |①---|
口②①口 |--②-|
口口口口 |----|
口②①口 |③---|
32
口口口口 |----|
①①①口 |①---|
口②②② |②---|
③③③口 |③---|
33
口口口① |①-②-|
④口②④ |③---|
口③口口 |----|
口口口口 |④---|
34
①④④口 |①-②-|
⑥②口⑥ |③-④-|
口口③口 |--⑤-|
口⑤⑤口 |--⑥-|
35
①口口① |①---|
口口口口 |----|
口口口口 |----|
口口口口 |----|
36
④口口⑤ |①-②-|
口口⑤③ |③-④-|
②⑥口口 |⑤---|
⑥①①口 |⑥---|
37
④⑤口口 |--①-|
⑥⑦口③ |②-③-|
口口口② |④-⑤-|
口口口① |⑥-⑦-|
38
口口口① |--①-|
口口口② |②-③-|
口口口③
口口口口

⑧⑧⑦⑦
口⑥口口
口口⑤口 |④⑤⑥-|
口④口口 |⑦-⑧-|
39
④⑤口口 |--①-|
⑥⑦口③ |②-③-|
口口口② |④-⑤-|
口口口① |⑥-⑦-|
40
口口口① |--①-|
口口口② |②-③-|
口口口③
口口口口

⑧⑧⑦⑦
口⑥口口
口口⑤口 |④⑤⑥-|
口④口口 |⑦-⑧-|
41
口口③③ |①---|
口②①口 |②---|
口①口口 |③---|
③③②口 |----|
42
②③④口 |①-②-|
口口①① |③-④-|
①①①①
口口口口

口口口⑧
口口口⑦
口口口⑥ |⑤-⑥-|
口口口⑤ |⑦-⑧-|
43
③③口口 |①---|
口①②口 |②---|
④口①④ |③---|
口②③③ |④---|
44
④③②① |①-②-|
④③②① |③-④-|
⑤⑥⑦⑧ |⑤-⑥-|
⑤⑥⑦⑧ |⑦-⑧-|
45
①②口口 |--①-|
①②口口 |②---|
④口口④ |③---|
口③③口 |④---|
46
④口口③ |①---|
②④③① |②---|
口②①口 |③---|
口口口口 |④---|
47
口口口口 |①---|
口③口③ |②---|
②口②口 |③---|
口①口① |----|
48
①口①口 |①---|
口②口② |②---|
③口③口 |③---|
口口口口 |----|
49
口口口① |①---|
口口口口 |②③④⑤|
②③④⑤ |----|
⑥⑦⑧⑨ |⑥⑦⑧⑨|
50
口口口⑨ |----|
⑧⑦⑥⑤ |①②③④|
④③②① |⑤⑥⑦⑧|
口口口口 |⑨---|
51
口口口口 |----|
口口口口 |----|
口口口口 |----|
口口口口
52
④口口④ |①---|
③口口③ |②---|
口②②口 |③-④-|
口①①口 |----|
53
口①①口 |①---|
口口口口 |②---|
口②②口 |----|
②口口② |----|
54
④①④① |①--②|
口③口③ |--③-|
⑤口口口 |--④-|
②口口口 |⑤---|
55
③口④口 |①--②|
③口④口 |----|
口②口① |③--④|
口②口① |----|
56
④口口④ |①---|
③口口③ |②---|
②②②② |③-④-|
①①①① |----|
57
口①①口 |①---|
口口口口 |②---|
口②②口 |----|
②口口② |----|
58
口①口① |①--②|
口③口③ |--③-|
口口口口
②口口口

口口口⑤
口口口口
口口④口 |④-⑤-|
口口口口 |----|
59
②口口口 |①--②|
①②②② |----|
口①口口 |----|
口口口口 |----|
60
口口口口 |①--②|
③口③口 |--③-|
②口②口 |----|
①口①口 |----|
61
口③口③ |①--②|
口②口② |--③-|
口①口① |----|
口口口口 |----|
62
口⑩⑤口 |①②③④|
口口口口 |--⑤-|
④⑧⑨③ |⑥⑦⑧⑨|
②⑥⑦① |--⑩-|
63
④⑧⑨② |①②③④|
③⑥⑦① |--⑤-|
口口口口 |⑥⑦⑧⑨|
口⑩⑤口 |--⑩-|
64
口口口口 |----|
口口口口 |----|
口口口口 |----|
口口口口 |----|
65
口口口④ |①---|
③②①口 |②---|
口口口口 |③---|
口③②① |④---|
66
④口口口 |①---|
口①②③ |②---|
口口口口 |③---|
①②③口 |④---|
67
④口口④ |①---|
③②①口 |②---|
口口口口 |③---|
口③②① |④---|
68
④口口④ |①---|
口①②③ |②---|
口口口口 |③---|
①②③口 |④---|
69
⑥②①⑤ |①-②-|
⑥②①⑤ |③-④-|
⑧④③⑦ |⑤-⑥-|
⑧④③⑦ |⑦-⑧-|
70
⑥②①⑤ |①-②-|
⑥②①⑤ |③-④-|
⑧④③⑦ |⑤-⑥-|
⑧④③⑦ |⑦-⑧-|
71
⑤①①⑤ |①-②-|
⑥②②⑥ |③-④-|
⑦③③⑦ |⑤-⑥-|
⑧④④⑧ |⑦-⑧-|
72
⑯⑧①⑨ |①②③④|
⑩②⑦⑮ |⑤⑥⑦⑧|
⑭⑥③⑪ |⑨⑩⑪⑫|
⑫④⑤⑬ |⑬⑭⑮⑯|

accuracy: 100%
最終更新:2022年06月16日 15:38