アットウィキロゴ
50th Memorial Songs -Beginning Story-
BEMANI Sound Team

EXTREME

Level: 8
BPM: 135
Notes: 735

Although this song has no BPM change, I used BPM change for convenience.
BPM 135 × 32/23 = BPM 187.8

1
口口口口 |(135)----|
口口口口 |----|
口口口口 |----|
口口口口 |----|
2
口①①口 |(187.8)①---|
口①口口 |--②③|
口③①口
口①①②

口口口口
⑤口口④
口口⑥口 |④---|
口口口口 |--⑤⑥|
3
④③②口 |①-②-|
口口口⑦ |③-④-|
口口口⑥ |⑤-⑥-|
①⑧口⑤ |⑦-⑧-|
4
⑦⑥⑤④ |①-②-|
口⑧③口 |③-④-|
口②口口 |⑤-⑥-|
①口口口 |⑦-⑧-|
5
口口口口 |①-②-|
③口口③ |③---|
口口①口 |----|
口口口② |----|
6
口口口口 |(270)----|
口口口口
口口口口
口口口口
7
④口口口 |(135)①-②-|
③⑦③⑦ |③-④-|
口口⑥② |⑤-⑥-|
⑤①⑤① |⑦---|
8
⑥②①口 |①②③④|
口口⑦口 |⑤-⑥-|
口⑦口⑤ |⑦---|
口④③口 |----|
9
口口口口 |①---|
口①口① |----|
口口①口
口口①口

口口口口
口口口口
②②②口 |----|
②口②口 |--②-|
10
②①②口 |①---|
①口①口 |----|
口口口口 |②---|
口③口③ |③---|
11
口①口① |①---|
口①①口 |----|
口①口①
口口口口

口口口口
口口口口
口②②口 |----|
口②口口 |--②-|
12
口①①口 |①---|
口①口口 |----|
口口口口 |----|
口口口口 |----|
13
①口口口 |①-②③|
⑤口②⑥ |④-⑤-|
口③口口 |⑥---|
口⑦④口 |⑦---|
14
⑥④③⑤ |①②③④|
口②①口 |⑤-⑥-|
口口口口
口口口口

口口口口
口⑧⑨口
口口口口 |⑦--⑧|
口口⑦口 |⑨---|
15
⑤口口⑦ |--①②|
⑧⑨⑩口 |③④-⑤|
口⑥口口 |-⑥-⑦|
①②③④ |⑧⑨⑩-|
16
口口⑤⑥ |-①②③|
⑦口口口 |④-⑤⑥|
口口口④ |⑦---|
③②①口 |----|
17
②④③口 |①--②|
口⑥⑤口 |③④⑤⑥|
口口口口
口口口①

⑫口口口
⑫口口⑪
口⑧⑦⑪ |⑦⑧⑨⑩|
口⑩⑨口 |⑪-⑫-|
18
口口①① |①-②③|
口②③口 |④⑤⑥⑦|
口④⑤口
口⑥⑦口

⑧⑧口⑨
口口口口
⑩口口口 |⑧--⑨|
⑩口口口 |⑩---|
19
⑫⑪⑩⑨ |①②③④|
④③②① |⑤⑥⑦⑧|
⑭⑧⑦⑬ |⑨⑩⑪⑫|
⑭⑥⑤⑬ |⑬-⑭-|
20
⑦⑦⑥⑥ |①-②③|
①⑤④① |④⑤⑥-|
口③②口 |⑦---|
口口口口 |----|
21
④口口口 |①-②-|
③⑦③⑦ |③-④-|
口口⑥② |⑤-⑥-|
⑤①⑤① |⑦---|
22
⑥②①口 |①②③④|
口口⑦口 |⑤-⑥-|
口⑦口⑤ |⑦---|
口④③口 |----|
23
④口口② |①---|
③口④口 |②-③-|
⑥口③① |④---|
口①⑥⑤ |⑤-⑥-|
24
口③③② |--①-|
口②口① |②---|
口①口口 |③---|
④口口④ |④---|
25
②口口④ |①---|
口④口③ |②-③-|
①③口⑥ |④---|
⑤⑥①口 |⑤-⑥-|
26
②口口口 |--①-|
①口②口 |②---|
口口①口
口口口口

口口口口
口口口口
⑦⑧⑨⑩ |③④⑤⑥|
③④⑤⑥ |⑦⑧⑨⑩|
27
①口口③ |①---|
①口口③ |②---|
口口口口 |③---|
④②②④ |④---|
28
①①①③ |①---|
口①③② |②---|
④①②② |③---|
④②②口 |④---|
29
③口②③ |①---|
口①口口 |②-③-|
口①①口
口①①口

口口口口
口口口口
口口口口 |--④-|
⑤④口⑤ |⑤---|
30
口口口口 |①---|
②口口② |②---|
口口①口
口口口口

④口口③
口④③口
口③④口 |③---|
③口口④ |④---|
31
③③③③ |①---|
①②②① |--②-|
①③③① |----|
②口口② |③---|
32
口口口口 |----|
③③口③ |①---|
②口②② |②---|
口①①口 |③---|
33
口④④① |①-②-|
口口②口 |③---|
口③口口 |④---|
⑤③口⑥ |⑤-⑥-|
34
①④④口 |①-②-|
⑥②口⑥ |③-④-|
口口③③ |--⑤-|
口⑤⑤口 |--⑥-|
35
①①①① |①---|
口口口口 |----|
口口口口 |----|
口口口口 |----|
36
⑥⑦⑧⑨ |①-②③|
⑩②口⑤ |④-⑤-|
口口③口 |⑥⑦⑧⑨|
①④口① |⑩---|
37
④口口口 |--①-|
口①⑤③ |②-③-|
⑥②口② |④-⑤-|
口③⑦① |⑥-⑦-|
38
①口③口 |--①-|
②口②口 |②-③-|
③⑨①⑧ |④⑤⑥⑦|
⑦⑥⑤④ |⑧-⑨-|
39
①⑦③口 |--①-|
②口②⑥ |②-③-|
③⑤①口 |④-⑤-|
口口口④ |⑥-⑦-|
40
口口口口 |--①-|
口①口③ |②-③-|
口②口②
口③口①

④⑤⑥⑦
⑧口口口
口口口⑨ |④⑤⑥⑦|
口口口口 |⑧-⑨-|
41
④口口④ |①--②|
口①⑤⑤ |③-④-|
⑤⑤⑤⑤ |⑤---|
①③②口 |----|
42
⑤口口④ |①-②-|
⑥口口③ |③-④-|
⑦口口② |⑤-⑥-|
⑧①①口 |⑦-⑧-|
43
⑨口①⑤ |①②③④|
⑨②⑥⑤ |⑤-⑥⑦|
口⑦③口 |⑧---|
口④⑧口 |⑨---|
44
口⑫⑪① |①-②③|
⑨⑧口⑩ |④-⑤⑥|
口⑥⑤⑦ |⑦-⑧⑨|
③②口④ |⑩-⑪⑫|
45
口口口⑤ |--①②|
④⑥口口 |③-④-|
口口口⑦ |⑤-⑥-|
③⑧①② |⑦-⑧-|
46
口④①口 |①--②|
④口口① |③-④-|
口②③口
口口口口

口口口口
口⑥口⑦
口⑧⑨口 |⑤-⑥-|
口口⑤口 |⑦-⑧⑨|
47
①①②② |①---|
口口口口 |②---|
口④⑤⑥ |③-④⑤|
③③口口 |⑥---|
48
①①口口 |①-②③|
口②③④ |④-⑤-|
⑨⑧⑦口 |⑥-⑦⑧|
⑤⑤⑥⑥ |⑨---|
49
口口②① |--①②|
③④⑤⑥ |③④⑤⑥|
⑦⑧口口 |--⑦⑧|
⑫⑪⑩⑨ |⑨⑩⑪⑫|
50
口口⑫⑫ |-①②③|
③②①⑫ |④⑤⑥⑦|
⑦⑥⑤④ |⑧⑨⑩⑪|
⑪⑩⑨⑧ |⑫---|
51
口口口口 |----|
口口口口 |----|
口口口口 |----|
口口口口
52
口口口⑤ |①---|
④口③口 |②--③|
口②②口 |④-⑤-|
①⑥口① |--⑥-|
53
口②口③ |①--②|
口口口口 |③---|
口口①口
口口口口

口口口口
口⑨⑧口
口⑦⑥口 |--④⑤|
口⑤④口 |⑥⑦⑧⑨|
54
口口①① |①--②|
口口口口 |--③-|
③口口③
②口口②

口口口④
口⑦⑧口
口⑤⑥口 |--④-|
口口口口 |⑤⑥⑦⑧|
55
①①口口 |①-②③|
口口口④ |-④-⑤|
口⑤口口
③口②口

口⑨口⑩
⑧口⑦口
口口口⑥ |⑥-⑦⑧|
口口口口 |-⑨⑩-|
56
口口口口 |①---|
口③口口 |②--③|
②②②②
①①①①

⑤口口口
口口口④
口口口口 |④-⑤-|
口口⑥口 |--⑥-|
57
③口②口 |①--②|
口口口口 |③---|
①①①①
口口口口

口口口口
口⑨⑧口
口⑦⑥口 |--④⑤|
口⑤④口 |⑥⑦⑧⑨|
58
②⑥③① |①-②③|
口口⑤① |--④-|
口口口口 |⑤-⑥-|
口④口⑦ |--⑦-|
59
②口口口 |①--②|
②②②② |----|
口②口口 |----|
①口口口 |----|
60
口口口口 |①--②|
①②③口 |--③-|
口①②③
①②③口

口口口口
口口口口
④口口口 |----|
⑥口口⑤ |④⑤⑥-|
61
口③②① |①--②|
③②①口 |--③-|
口③②① |----|
口口口口 |----|
62
⑥⑤⑤① |①②③④|
口②⑦⑤ |--⑤-|
⑧⑩⑩③ |⑥⑦⑧⑨|
⑩④⑨口 |--⑩-|
63
⑥⑤⑤① |①②③④|
口②⑦⑤ |--⑤-|
⑧⑩⑩③ |⑥⑦⑧⑨|
⑩④⑨⑩ |--⑩-|
64
口口口口 |----|
口口口口 |----|
口口口口 |----|
口口口口 |----|
65
⑯⑧⑦⑮ |①②③④|
⑭⑥⑤⑬ |⑤⑥⑦⑧|
⑫④③⑪ |⑨⑩⑪⑫|
⑩②①⑨ |⑬⑭⑮⑯|
66
⑩②①⑨ |①②③④|
⑫④③⑪ |⑤⑥⑦⑧|
⑭⑥⑤⑬ |⑨⑩⑪⑫|
⑯⑧⑦⑮ |⑬⑭⑮⑯|
67
④②①③ |①②③④|
⑧⑥⑤⑦ |⑤⑥⑦⑧|
⑫⑩⑨⑪ |⑨⑩⑪⑫|
⑯⑭⑬⑮ |⑬⑭⑮⑯|
68
②④③① |①②③④|
⑥⑧⑦⑤ |⑤⑥⑦⑧|
⑩⑫⑪⑨ |⑨⑩⑪⑫|
⑭⑯⑮⑬ |⑬⑭⑮⑯|
69
②⑥⑤① |①②③④|
⑩⑭⑬⑨ |⑤⑥⑦⑧|
④⑧⑦③ |⑨⑩⑪⑫|
⑫⑯⑮⑪ |⑬⑭⑮⑯|
70
⑧④③⑦ |①②③④|
⑯⑫⑪⑮ |⑤⑥⑦⑧|
⑥②①⑤ |⑨⑩⑪⑫|
⑭⑩⑨⑬ |⑬⑭⑮⑯|
71
⑥②③⑦ |①②③④|
⑩⑭⑮⑪ |⑤⑥⑦⑧|
④⑯⑬① |⑨⑩⑪⑫|
⑫⑧⑤⑨ |⑬⑭⑮⑯|
72
③②①口 |①②③④|
④口口口 |⑤⑥⑦⑧|
⑤口口口
⑥⑦⑧口

⑮⑭⑬⑫
口⑯⑯⑪
口⑯⑯⑩ |⑨⑩⑪⑫|
口口口⑨ |⑬⑭⑮⑯|

accuracy: 100%
最終更新:2022年06月16日 15:39