アットウィキロゴ
花ハ踊レヤいろはにほ(ハピネス mix
Remixed by BEMANI Sound Team "D.J.KOBINATA" feat.Kuroa*

BASIC

Level: 3
BPM: 174
Notes: 227

1
口口口口 |----|
口口口口 |----|
口口口口 |----|
口口口口 |----|
2
口口口口 |①---|
口口口口 |----|
②口口① |②---|
口口口口 |----|
3
口口③口 |①---|
口口②口 |②---|
口口①口 |③---|
口口口口 |----|
4
口③口口 |①---|
口②口口 |②---|
口①口口 |③---|
口口口口 |----|
5
口口①口 |①---|
口口②口 |②---|
口口③口 |③---|
口口口口 |----|
6
②口口① |①---|
④口口③ |②---|
口口口口 |③---|
口口口口 |④---|
7
口口口口 |①---|
口口口口 |②---|
②口口① |③---|
④口口③ |④---|
8
口口口口 |①---|
口口口口 |②---|
口④③口 |③---|
口②①口 |④---|
9
口④③口 |①---|
口②①口 |②---|
口口口口 |③---|
口口口口 |④---|
10
口口②① |①---|
口口口口 |----|
口口口口 |②---|
口口口口 |----|
11
口①口口 |①---|
口口口口 |----|
口口口口 |----|
口口口口 |----|
12
口口口口 |①---|
①②口口 |----|
口口口口 |②---|
口口口口 |----|
13
口口口口 |①---|
口口①口 |----|
口口口口 |----|
口口口口 |----|
14
口口口口 |①---|
口口口口 |----|
口口②① |②---|
口口口口 |----|
15
口口口口 |①---|
口口口口 |----|
口①口口 |----|
口口口口 |----|
16
口口口口 |①---|
口口口口 |----|
口口口口 |②---|
①②口口 |----|
17
口口口口 |①---|
口口口口 |----|
口口口口 |----|
口口①口 |----|
18
口口口口 |①---|
口①①口 |----|
口②②口 |②---|
口口口口 |----|
19
口口口口 |①---|
口口口口 |----|
口口口口 |----|
口①①口 |----|
20
口口口口 |①---|
②口口② |----|
①口口① |②---|
口口口口 |----|
21
①口口① |①---|
口口口口 |----|
口口口口 |----|
口口口口 |----|
22
口口口口 |①---|
②口口② |----|
①口口① |②---|
口口口口 |----|
23
口口口口 |①---|
口①①口 |----|
口②②口 |②---|
口口口口 |----|
24
口口口口 |①---|
②口口② |----|
①口口① |②---|
口口口口 |----|
25
口口口口 |①---|
口①①口 |----|
口②②口 |②---|
口口口口 |----|
26
口口口口 |①---|
口口口③ |----|
口口口② |②---|
口①①口 |③---|
27
口口口① |①---|
口口口口 |----|
口口口口 |----|
口口口口 |----|
28
口口口口 |①---|
③口口口 |----|
②口口口 |②---|
口①①口 |③---|
29
①口口口 |①---|
口口口口 |----|
口口口口 |----|
口口口口 |----|
30
口口口口 |①---|
④③②① |②---|
口口口口 |③---|
口口口口 |④---|
31
口口口口 |①---|
口口口口 |②---|
①②③④ |③---|
口口口口 |④---|
32
②口口② |①---|
口①①口 |----|
口口口口 |②---|
口口口口 |----|
33
口口口口 |----|
口口口口 |----|
口口口口 |----|
口口口口 |----|
34
①口口① |①---|
②口口② |----|
口口口口 |②---|
口口口口 |----|
35
口口口口 |①---|
口口口口 |----|
①口口① |②---|
②口口② |----|
36
口口口口 |①---|
口口口口 |----|
口②②口 |②---|
口①①口 |----|
37
口口口口 |①---|
①①①① |----|
口口口口 |----|
口口口口 |----|
38
口口口口 |①---|
口口口口 |----|
②口口① |②---|
口口口口 |----|
39
口口③口 |①---|
口口②口 |②---|
口口①口 |③---|
口口口口 |----|
40
口③口口 |①---|
口②口口 |②---|
口①口口 |③---|
口口口口 |----|
41
口口①口 |①---|
口口②口 |②---|
口口③口 |③---|
口口口口 |----|
42
口口口口 |①---|
④③②① |②---|
口口口口 |③---|
口口口口 |④---|
43
口口口口 |①---|
口口口口 |②---|
①②③④ |③---|
口口口口 |④---|
44
②口口② |①---|
口①①口 |----|
口口口口 |②---|
口口口口 |----|
45
口口口口 |----|
口口口口 |----|
口口口口 |----|
口口口口 |----|
46
口口口口 |①---|
口口口口 |----|
②口口① |②---|
口口口口 |----|
47
口③③口 |①---|
口②②口 |②---|
口①①口 |③---|
口口口口 |----|
48
②口口① |①---|
④口口③ |②---|
口口口口 |③---|
口口口口 |④---|
49
口口口口 |①---|
口口口口 |②---|
②口口① |③---|
口口口③ |----|
50
口①①口 |①---|
口②②口 |②---|
口③③口 |③---|
口④④口 |④---|
51
④口口④ |①---|
③口口③ |②---|
②口口② |③---|
①口口① |④---|
52
口①①口 |①---|
口②②口 |②---|
口③③口 |③---|
口④④口 |④---|
53
④口口④ |①---|
③口口③ |②---|
②口口② |③---|
①口口① |④---|
54
口①①口 |①---|
口①①口 |----|
口口口口 |----|
口口口口 |----|
55
口口②① |①---|
口口口口 |----|
口口口口 |②---|
口口口口 |----|
56
口①口口 |①---|
口口口口 |----|
口口口口 |----|
口口口口 |----|
57
口口口口 |①---|
①②口口 |----|
口口口口 |②---|
口口口口 |----|
58
口口口口 |①---|
口口①口 |----|
口口口口 |----|
口口口口 |----|
59
口口口口 |①---|
口口口口 |----|
口口②① |②---|
口口口口 |----|
60
口口口口 |①---|
口口口口 |----|
口①口口 |----|
口口口口 |----|
61
口口口口 |①---|
口口口口 |----|
口口口口 |②---|
①②口口 |----|
62
口口口口 |①---|
口口口口 |----|
口口口口 |----|
口口①口 |----|
63
口口口口 |①---|
口口口口 |②---|
③④②① |③---|
口口口口 |④---|
64
口口口口 |①---|
③④②① |②---|
口口口口 |③---|
口口口口 |④---|
65
③④②① |①---|
口口口口 |②---|
口口口口 |③---|
口口口口 |④---|
66
口口口口 |①---|
③④②① |②---|
口口口口 |③---|
口口口口 |④---|
67
口口口口 |①---|
口口口口 |②---|
③④②① |③---|
口口口口 |④---|
68
口口口口 |①---|
口口口口 |②---|
口口口口 |③---|
③④②① |④---|
69
口口口口 |①---|
口口口口 |②---|
③④②① |③---|
口口口口 |④---|
70
③③③③ |①---|
①口口① |----|
口②②口 |②---|
口口口口 |--③-|

accuracy: 99.5%
最終更新:2024年09月08日 16:59