アットウィキロゴ
花ハ踊レヤいろはにほ(ハピネス mix
Remixed by BEMANI Sound Team "D.J.KOBINATA" feat.Kuroa*

ADVANCED

Level: 7
BPM: 174
Notes: 464

1
口口口口 |----|
口口口口 |----|
口口口口 |----|
口口口口 |----|
2
口口①① |①---|
口口③③ |--②-|
②口口口 |③---|
④口口口 |--④-|
3
口口口口 |①-②-|
口⑤⑤口 |③-④-|
④口口③ |⑤---|
口②①口 |----|
4
口⑤⑤⑥ |①-②-|
口口口口 |③-④-|
④口口③ |⑤---|
②口口① |--⑥-|
5
口口口口 |①-②-|
①口口② |③-④-|
③⑤⑤④ |⑤---|
口口口口 |----|
6
口口口④ |①---|
口口④③ |②---|
口口③② |③---|
①口②① |④---|
7
④口口口 |①---|
③④口口 |②---|
②③口口 |③---|
①②口① |④---|
8
口⑧⑦口 |①-②-|
口⑥⑤口 |③-④-|
口④③口 |⑤-⑥-|
口②①口 |⑦-⑧-|
9
②口口① |①-②-|
④口口③ |③-④-|
⑥口口⑤ |⑤-⑥-|
⑧口口⑦ |⑦-⑧-|
10
③口口口 |①---|
口口口口 |--②-|
口②①口 |③---|
口口口④ |--④-|
11
口口口④ |①---|
口③①口 |--②-|
口口口口 |③---|
②口口口 |--④-|
12
①口口口 |①---|
③口④② |②-③-|
口⑤口口 |--④-|
口口⑥口 |⑤-⑥-|
13
口口口① |----|
口口口口 |----|
口口口口 |----|
口口口口 |--①-|
14
②口口口 |①---|
口口④口 |--②-|
口③①口 |③---|
口口口口 |--④-|
15
口口口④ |①---|
口②口口 |--②-|
口口口口 |③---|
③口口① |--④-|
16
①口口口 |①---|
③口口② |②-③-|
口口口④ |--④-|
⑤⑤⑥⑥ |⑤-⑥-|
17
口口口口 |----|
口口口口 |----|
口③④口 |①-②-|
口①②口 |③-④-|
18
口口口口 |①---|
②②口口 |----|
①口口口 |②---|
口口口口 |----|
19
①①①口 |①---|
口口口口 |----|
⑤口口④ |②-③-|
③口口② |④-⑤-|
20
③口②③ |①---|
④①①④ |②-③-|
⑤口口⑤ |--④-|
口口口口 |--⑤-|
21
口口口① |----|
②口口口 |----|
口口口③ |①-②-|
④口口口 |③-④-|
22
口口③③ |①---|
口口②② |--②-|
口口口口 |③---|
口口①① |----|
23
③③口口 |①---|
②②口口 |--②-|
口口口口 |③---|
①①口口 |----|
24
口口③③ |①---|
口口②② |--②-|
口口口口 |③---|
口口①① |----|
25
口口口口 |----|
口口口① |--①-|
②口口口 |②-③-|
口④⑤③ |④-⑤-|
26
①口口① |①--②|
口②②⑤ |--③-|
口③③⑤ |④---|
④口口④ |⑤---|
27
口口口口 |①-②-|
①口口口 |③-④-|
①口④口
口③②口

口口口口
口口口⑧
⑦⑤口⑥ |⑤-⑥-|
口口口口 |⑦-⑧-|
28
①口口① |①--②|
口②②⑤ |--③-|
口③③⑤ |④---|
④口口④ |⑤---|
29
口③②口 |①-②-|
①⑤④口 |③-④-|
①⑦⑥口 |⑤-⑥-|
口口口口 |⑦---|
30
口①①③ |①---|
口口口口 |--②-|
口④②口 |③---|
口口口口 |--④-|
31
①口口口 |①---|
口④②口 |--②-|
口口口口 |③---|
口口口③ |--④-|
32
③③③③ |①---|
口口口口 |--②-|
口②②口 |③---|
①口口口 |----|
33
②④③① |----|
口口⑤口 |--①-|
口口口口 |②-③-|
口口口口 |④-⑤-|
34
⑤⑤口口 |①-②-|
⑥⑥口口 |--③-|
②②④④ |④---|
①①③③ |⑤-⑥-|
35
口口①① |--①-|
口口②② |②---|
口③③口 |③---|
口④④口 |④---|
36
①④③① |①-②-|
②⑥⑤② |--③-|
口口口口 |④-⑤-|
口口口口 |⑥---|
37
②口口口 |①---|
口口口口 |--②-|
口口口口
①①①①

口口口口
⑥口口③
口④口口 |③-④-|
口口口⑤ |⑤-⑥-|
38
口口①① |①---|
口口③③ |--②-|
②口口口 |③---|
④口口口 |--④-|
39
⑥⑥口口 |①-②-|
口⑤⑤口 |③-④-|
④口口③ |⑤---|
口②①口 |⑥---|
40
口⑤⑤⑥ |①-②-|
口口口口 |③-④-|
④口口③ |⑤---|
②口口① |--⑥-|
41
⑥⑥⑦⑦ |①-②-|
①口口② |③-④-|
③⑤⑤④ |⑤-⑥-|
口口口口 |⑦---|
42
⑤④⑤④ |①---|
③口③口 |②---|
②口②口 |③-④-|
①口①口 |--⑤-|
43
口口口口 |----|
口①①口 |①---|
口②②口 |②---|
口③③口 |③---|
44
③③③③ |①---|
①口口① |--②-|
①②②① |③---|
口口口口 |----|
45
①口口口 |----|
⑤口口② |--①-|
口③口口 |②-③-|
口口口④ |④-⑤-|
46
口口①① |①---|
口口③③ |--②-|
②口口口 |③---|
④口口口 |--④-|
47
⑥⑥口口 |①-②-|
口⑤⑤口 |③-④-|
④口口③ |⑤---|
口②①口 |⑥---|
48
口⑧口① |①-②-|
②口⑦口 |③-④-|
口⑥口③ |⑤-⑥-|
④口⑤口 |⑦-⑧-|
49
⑥⑥⑦⑦ |①-②-|
口⑤⑤口 |③-④-|
④口口① |⑤-⑥-|
②口口③ |⑦---|
50
②口口口 |----|
口口口① |①---|
口口口② |②---|
①口口口 |----|
51
口口⑤③ |①-②-|
④口②口 |--③-|
③口口口 |--④-|
口①口④ |--⑤-|
52
口②口口 |①---|
③口口① |②-③-|
⑤口口⑤ |--④-|
④口口④ |--⑤-|
53
口⑧⑦口 |①-②-|
口⑥⑤口 |③-④-|
口④③口 |⑤-⑥-|
口②①口 |⑦-⑧-|
54
①口口① |①---|
口口口口 |----|
口口口口 |----|
口口口口 |----|
55
①口口① |①---|
②口口口 |②---|
③①①口 |③---|
④口口口 |④---|
56
①口口口 |①---|
②口③② |②---|
③口④口 |③---|
④口口口 |④---|
57
①口口口 |①---|
②口③口 |②-③-|
④口⑤① |④-⑤-|
⑥口口口 |⑥---|
58
①口口② |①-②-|
③口口④ |③-④-|
⑤口⑥口 |⑤-⑥-|
⑦口⑧口 |⑦-⑧-|
59
①口口① |①---|
口口口② |②---|
口口口③ |③---|
口口口④ |④---|
60
口口口① |①---|
③⑥口② |②-③-|
口④口④ |④---|
口口口⑤ |⑤-⑥-|
61
①口口① |①---|
口口口② |②---|
口口口③ |③---|
口口口④ |④---|
62
口④口① |①-②-|
口⑧口③ |③-④-|
②口口⑤ |⑤-⑥-|
口⑥口⑦ |⑦-⑧-|
63
④口口① |①---|
③口口口 |②---|
②口口口 |③---|
①口口口 |④---|
64
⑤口口口 |①---|
④口口④ |②-③-|
②口③口 |④---|
①口口口 |⑤---|
65
④口①口 |①---|
③口口口 |②---|
②口口口 |③---|
①口口口 |④---|
66
⑦口⑥口 |①-②-|
⑤口⑧② |③-④-|
③口口④ |⑤-⑥-|
①口口口 |⑦-⑧-|
67
口口口④ |①---|
口口口③ |②---|
口口口② |③---|
①口口① |④---|
68
口口口④ |①---|
口口口③ |②---|
口口口② |③---|
③口口① |④---|
69
⑧口口⑦ |①-②-|
⑥口口⑤ |③-④-|
口④③口 |⑤-⑥-|
口②①① |⑦-⑧-|
70
⑥②①⑤ |①-②-|
⑧④③⑦ |③-④-|
口⑤⑥口 |⑤-⑥-|
口⑦⑧口 |⑦-⑧-|

accuracy: 99.5%
最終更新:2024年09月08日 17:00