アットウィキロゴ
花ハ踊レヤいろはにほ(ハピネス mix
Remixed by BEMANI Sound Team "D.J.KOBINATA" feat.Kuroa*

EXTREME

Level: 9.0
BPM: 174
Notes: 684

1
口口口口 |----|
口口口口 |----|
口口口口 |----|
口口口口 |----|
2
①口口① |①---|
③口口③ |②-③-|
①口②① |----|
③口④③ |--④-|
3
口口口口 |①-②-|
⑤③口⑤ |③-④-|
口口④② |⑤---|
⑤①口⑤ |----|
4
口③口① |①-②-|
④⑤②口 |③-④-|
⑤口⑤⑥ |⑤---|
口⑤口口 |--⑥-|
5
口③口口 |①-②-|
④⑤②① |③-④-|
⑤口⑤口 |⑤---|
口⑤口口 |----|
6
⑧口⑦口 |①-②-|
⑥口⑤⑦ |③-④-|
④②③⑤ |⑤-⑥-|
①口口③ |⑦-⑧-|
7
口⑦口⑧ |①-②-|
⑦⑤口⑥ |③-④-|
⑤③②④ |⑤-⑥-|
③口口① |⑦-⑧-|
8
⑦口口⑧ |①-②-|
⑤口口⑥ |③-④-|
③口口④ |⑤-⑥-|
①口口② |⑦-⑧-|
9
口口口口 |①②③④|
口①②口 |⑤⑥⑦⑧|
口③④口
⑦⑤⑥⑧

口⑬⑭口
⑪⑮⑯⑫
⑨口口⑩ |⑨⑩⑪⑫|
口口口口 |⑬⑭⑮⑯|
10
①口口④ |①---|
口口口口 |②-③-|
口⑥③口 |④---|
⑤⑤②② |⑤-⑥-|
11
①口口④ |①---|
口口⑦口 |②-③-|
口⑥③口 |④---|
⑤⑤②② |⑤-⑥⑦|
12
④①口口 |①---|
⑤口口口 |②-③-|
⑥口③口 |--④-|
口口②② |⑤-⑥-|
13
口口②① |①-②-|
口⑧④③ |③-④-|
口口⑥⑤ |⑤-⑥-|
口口口⑦ |⑦-⑧-|
14
⑤⑤②② |①---|
口⑥③口 |②-③-|
口口口口 |④---|
①口口④ |⑤-⑥-|
15
⑤⑤②② |①---|
口口③口 |②-③-|
口口⑦口 |④---|
①⑥口④ |⑤-⑥⑦|
16
口口②② |①---|
⑤①③⑥ |②-③-|
口口口口 |--④-|
④⑤⑥口 |⑤-⑥-|
17
①②口口 |--①-|
口⑥⑤口 |--②-|
口④③口 |③-④-|
口口口口 |⑤-⑥-|
18
口口④② |①---|
口口口口 |②---|
口③口口 |③---|
①③口口 |④---|
19
口②口口 |①---|
口口①口 |②---|
⑥口①⑤ |③-④-|
④口①③ |⑤-⑥-|
20
口①①口 |①-②-|
⑤③④⑤ |--③-|
⑤③④⑤ |--④-|
③②②④ |--⑤-|
21
①②③口 |--①-|
口④口口 |--②-|
口口⑤口 |③-④-|
口⑥口口 |⑤-⑥-|
22
④口③④ |①---|
口口②③ |--②-|
口口口② |③---|
口口①① |④---|
23
④③口④ |①---|
③②口口 |--②-|
②口口口 |③---|
①①口口 |④---|
24
④口③④ |①---|
口口②③ |--②-|
口口口② |③---|
口口①① |④---|
25
口口口口 |①-②-|
口①口④ |③-④-|
⑤口口② |⑤-⑥-|
③⑦⑧⑥ |⑦-⑧-|
26
④口口⑤ |①--②|
②①①② |--③-|
③①①③ |④---|
⑤口口④ |⑤---|
27
口⑥口口 |①-②-|
④①①③ |③-④-|
②①①⑤ |⑤-⑥-|
口⑧⑦口 |⑦-⑧-|
28
⑤口口④ |①--②|
②①①② |--③-|
③①①③ |④---|
④口口⑤ |⑤---|
29
口口口口 |①-②-|
②①①⑤ |③-④-|
④①①③ |⑤-⑥-|
口⑥⑦口 |⑦---|
30
③②⑤③ |①-②-|
①口口④ |--③-|
口②⑤口 |④-⑤-|
①⑥⑥④ |--⑥-|
31
③②⑤③ |①-②-|
②①④⑤ |--③-|
①口口④ |④-⑤-|
⑥口口⑥ |--⑥-|
32
口口口口 |①-②-|
口③③口 |--③-|
口②②口
口①①口

口④④口
④口口④
口口口口 |④---|
口⑤口口 |⑤---|
33
③口⑥口 |①---|
口口口口 |②-③-|
⑦口口④ |④-⑤-|
⑤口①② |⑥-⑦-|
34
③口口④ |①-②-|
⑥①②⑤ |--③-|
⑤②①⑥ |④---|
口④③口 |⑤-⑥-|
35
③②①④ |--①-|
口③④口 |②---|
口口口口 |③---|
①④③② |④---|
36
口⑥⑥口 |①-②-|
①⑤⑤② |--③-|
④口口③ |④-⑤-|
①口口② |⑥---|
37
①口口① |①---|
⑤口⑥② |--②-|
口①①口 |③-④-|
口③口④ |⑤-⑥-|
38
①口②① |①-②-|
⑤③⑥⑤ |③-④-|
①⑦④① |⑤-⑥-|
⑤口⑧⑤ |⑦-⑧-|
39
⑥口口口 |①-②-|
⑤③口⑤ |③-④-|
口⑥④② |⑤---|
⑤①口⑤ |⑥---|
40
口③口① |①-②-|
④⑤②口 |③-④-|
⑤口⑤⑦ |⑤---|
口⑤⑥口 |⑥-⑦-|
41
⑥③⑦口 |①-②-|
④⑤②① |③-④-|
⑤⑥⑤⑦ |⑤-⑥-|
口⑤口口 |⑦---|
42
口口口口 |①-②-|
口口口① |③-④-|
④口③口
②口①③

⑦⑤⑧⑥
⑤口⑥⑧
口口口口 |⑤-⑥-|
口口口口 |⑦-⑧-|
43
口⑧⑦口 |①-②-|
⑦⑤⑥口 |③-④-|
口④③⑤ |⑤-⑥-|
③①②口 |⑦-⑧-|
44
①⑤⑥② |①-②-|
④口口③ |--③-|
⑥②①⑤ |④---|
口③④口 |⑤-⑥-|
45
②口口① |--①-|
⑥口⑦③ |②-③-|
口①②口 |④-⑤-|
口④口⑤ |⑥-⑦-|
46
①口②① |①-②-|
⑤③⑥⑤ |③-④-|
①⑦④① |⑤-⑥-|
⑤口⑧⑤ |⑦-⑧-|
47
口⑥口口 |①-②-|
⑤③口⑤ |③-④-|
⑥口④② |⑤---|
⑤①口⑤ |⑥---|
48
⑧口口① |①-②-|
口⑦②口 |③-④-|
⑥口口③ |⑤-⑥-|
口⑤④口 |⑦-⑧-|
49
口口①① |①-②-|
②口③口 |③-④-|
口口口③
④口口口

口⑥口⑦
口口口口
⑥口⑦口 |⑤-⑥-|
口口⑤⑤ |⑦---|
50
①口口口 |①---|
②③口② |②---|
③口口口 |③---|
④口⑤口 |④-⑤-|
51
①口口④ |①-②-|
③口②⑥ |③-④-|
⑤①⑨⑧ |⑤-⑥-|
⑦口口口 |⑦-⑧⑨|
52
①口口口 |①---|
②口③口 |②-③-|
④①⑦口 |④-⑤-|
⑥口⑤② |⑥-⑦-|
53
①③②② |①-②-|
口①口④ |③-④-|
③口口④
口口口口

口口口口
口⑦⑧口
口⑨⑩口 |⑤-⑥-|
⑤⑤⑥⑥ |⑦⑧⑨⑩|
54
①口口① |①---|
口口口口 |----|
口口口口 |----|
口口口口 |----|
55
①口口① |①-②-|
②③口④ |③-④-|
口口口①
口口口④

⑧口⑦口
口口口口
⑤⑥⑦口 |⑤-⑥-|
口口口口 |⑦-⑧-|
56
口①⑦⑤ |①-②-|
⑥⑧②口 |③-④-|
口口⑦⑤ |⑤-⑥-|
③④②口 |⑦-⑧-|
57
①⑦口⑧ |①-②-|
④口③② |③-④-|
①⑦⑥⑤ |⑤-⑥-|
④口口口 |⑦-⑧-|
58
口口①口 |①-②-|
口②⑦⑤ |③-④-|
④⑧口口 |⑤-⑥-|
口⑥口③ |⑦-⑧-|
59
①口④① |①-②-|
②③口口 |③-④-|
口口①④
口口口口

⑧口口口
口口口⑦
⑤⑥口口 |⑤-⑥-|
口口⑦口 |⑦-⑧-|
60
口①⑦⑤ |①-②-|
⑥⑧②口 |③-④-|
口口⑤⑦ |⑤-⑥-|
③④口② |⑦-⑧-|
61
①④口⑧ |①-②-|
⑦口③② |③-④-|
④①⑥⑤ |⑤-⑥-|
口⑦口口 |⑦-⑧-|
62
⑥口①口 |①-②-|
⑧②口⑤ |③-④-|
④口口口 |⑤-⑥-|
口口⑦③ |⑦-⑧-|
63
口⑤④③ |①---|
口口口口 |②-③④|
口⑥⑥② |⑤-⑥-|
①⑦⑦① |--⑦-|
64
③④⑤口 |①---|
口口口口 |②-③④|
②⑥⑥口 |⑤-⑥-|
①⑦⑦① |--⑦-|
65
⑥口③⑥ |①---|
⑦④口⑦ |②-③④|
口口⑤② |⑤-⑥-|
①口口① |--⑦-|
66
④口⑦口 |①-②-|
⑥⑧③口 |③-④-|
②口口⑤ |⑤-⑥-|
口①①口 |⑦-⑧-|
67
口口口③ |①---|
⑥口④⑥ |②-③④|
口⑤口② |⑤-⑥-|
①⑦⑦① |--⑦-|
68
③口口口 |①---|
⑥④口⑥ |②-③④|
②口⑤口 |⑤-⑥-|
①⑦⑦① |--⑦-|
69
口③⑥口 |①-②-|
口⑦②口 |③-④-|
①口⑧④ |⑤-⑥-|
⑤口口口 |⑦-⑧-|
70
①⑨⑨② |①②③④|
③⑪⑪④ |⑤⑥⑦⑧|
⑤⑩⑩⑥ |⑨-⑩-|
⑦⑫⑫⑧ |⑪-⑫-|

accuracy: 99.5%
最終更新:2024年09月08日 17:00