アットウィキロゴ
ネリと琥珀糖
sasakure.UK

BASIC

Level: 4
BPM: 170
Notes: 225

1
口口口口 |----|
口口口口 |----|
口口口口 |----|
口口口口 |----|
2
④口口① |①---|
口口口② |②---|
口口口③ |③---|
口口口口 |④---|
3
④口口口 |①---|
①口口口 |②---|
②③③口 |③---|
口口口口 |④---|
4
口口口③ |①---|
①口口口 |②---|
②口口口 |③---|
口口口口
5
口口口④ |①---|
口口口① |②---|
口③③② |③---|
口口口口 |④---|
6
③口口口 |①---|
口口口① |②---|
口口口② |③---|
口口口口
7
口口口口 |①---|
①口口口 |②---|
②④④口 |③---|
口③口口 |④---|
8
口口口口 |--①-|
①②②① |----|
口口口口 |②---|
口口口口
9
①②②① |--①-|
口口口口 |----|
口口口口 |②---|
口口口口 |----|
10
口口口口 |①---|
口口①口 |----|
口口口口 |----|
口口口口 |----|
11
口口口口 |①---|
口口口口 |----|
口①口口 |----|
口口口口 |----|
12
口口口口 |①---|
口口②① |----|
口口口口 |②---|
口口口口 |----|
13
口口口口 |①---|
②①口口 |----|
口口口口 |②---|
口口口口 |----|
14
①②口口 |①---|
口口口口 |----|
口口口口 |②---|
口口口口 |----|
15
口口①② |①---|
口口口口 |----|
口口口口 |②---|
口口口口 |----|
16
口①口口 |①---|
口口②口 |----|
口口口口 |②---|
口口口口 |----|
17
口口口口 |①---|
口口口口 |----|
口①口口 |②---|
口口②口 |----|
18
口口口口 |①---|
②口口② |----|
①口口① |----|
口口口口 |②---|
19
口口口口 |----|
口口口口 |----|
口口口口 |----|
口口口口 |----|
20
口口口口 |①---|
口口②② |----|
口①①口 |----|
口口口口 |②---|
21
口口口口 |----|
口口口口 |----|
口口口口 |----|
口口口口 |----|
22
口口口口 |①---|
②②口口 |----|
口①①口 |----|
口口口口 |②---|
23
口口口口 |----|
口口口口 |----|
口口口口 |----|
口口口口 |----|
24
口口口口 |①---|
口口②口 |----|
口口①口 |②---|
口口口口 |----|
25
口口口口 |①---|
口②口口 |----|
口①口口 |②---|
口口口口 |----|
26
口口口口 |①---|
口口②口 |----|
口口①口 |②---|
口口口口 |----|
27
口口口口 |①---|
口②口口 |----|
口①口口 |②---|
口口口口 |----|
28
③口口① |①---|
④口口② |②---|
口口口口 |③---|
口口口口 |④---|
29
口③①口 |①---|
口④②口 |②---|
口口口口 |③---|
口口口口 |④---|
30
③口口① |①---|
④口口② |②---|
口口口口 |③---|
口口口口 |④---|
31
口③①口 |①---|
口④②口 |②---|
口口口口 |③---|
口口口口 |④---|
32
③口口① |①---|
④口口② |②---|
口口口口 |③---|
口口口口 |④---|
33
口③①口 |①---|
口④②口 |②---|
口口口口 |③---|
口口口口 |④---|
34
口口①① |----|
口口口口 |----|
口口口口 |①---|
口口口口 |----|
35
口口口口 |----|
口①口口 |--①-|
口口口口
口口口口
36
口口口口 |----|
口口口口 |①---|
口口①口 |--②-|
口口口② |----|
37
①①口口 |①---|
口口口口 |----|
口口②口 |----|
口口口口 |--②-|
38
口口口口 |----|
口口口口 |①---|
口口口口 |----|
口①口口 |----|
39
口口①① |①---|
口②口口 |----|
口口口口 |----|
口口口口 |--②-|
40
口口口口 |----|
口口口口 |①---|
口口①口 |--②-|
口口口② |----|
41
①①口口 |①---|
口口口口 |----|
口口②口 |----|
口口口口 |--②-|
42
口口口口 |----|
口口口口 |①---|
口口口口 |----|
口①口口 |----|
43
口口①① |①---|
口②口口 |----|
口口口口 |----|
口口口口 |--②-|
44
口口口口 |----|
口口口口 |①---|
口口①口 |--②-|
口口口② |----|
45
①①口口 |①---|
口口口口 |----|
口口②口 |----|
口口口口 |--②-|
46
口口口口 |----|
口口口口 |①---|
口口口口 |----|
口①口口 |----|
47
口口口口 |①---|
口口口口 |--②-|
口口③③ |----|
②②①① |③---|
48
口口口口 |--①-|
口口②② |----|
①①口口 |②---|
口口口口
49
口口②② |--①-|
①①口口 |----|
口口口口 |②---|
口口口口
50
①①口口 |--①-|
口②②口 |----|
口口口口 |②---|
口口口口
51
口口口口 |----|
口口口口 |----|
口①①口 |①---|
口口口口
52
口口口口 |----|
口口口口 |----|
口口口口 |①---|
口①①口 |----|
53
口口口口 |①---|
口口②① |----|
口口口口 |②---|
口口口口 |----|
54
口口口口 |①---|
②①口口 |----|
口口口口 |②---|
口口口口 |----|
55
①②口口 |①---|
口口口口 |----|
口口口口 |②---|
口口口口 |----|
56
口口①② |①---|
口口口口 |----|
口口口口 |②---|
口口口口 |----|
57
口①口口 |①---|
口口②口 |----|
口口口口 |②---|
口口口口 |----|
58
口口口口 |①---|
口口口口 |----|
口①口口 |②---|
口口②口 |----|
59
口口口口 |①---|
②口口② |----|
①口口① |----|
口口口口 |②---|
60
口口口口 |----|
口口口口 |----|
口口口口 |----|
口口口口 |----|
61
口④口口 |①---|
口口③口 |②---|
口②口口 |③---|
口口①口 |④---|
62
口口口口 |----|
口口口口 |----|
口口口口 |----|
口口口口 |----|
63
口口口① |①---|
口②口口 |----|
口口口口 |----|
口口口口 |--②-|
64
口口口口 |----|
口口口口 |①---|
口口①口 |--②-|
口口口② |----|
65
①口口口 |①---|
口口口口 |----|
口口②口 |----|
口口口口 |--②-|
66
口口口口 |----|
口口口口 |①---|
口口口口 |----|
口①口口 |----|
67
口口口① |①---|
口②口口 |----|
口口口口 |----|
口口口口 |--②-|
68
口口口口 |----|
口口口口 |①---|
口口①口 |--②-|
口口口② |----|
69
①口口口 |①---|
口口口口 |----|
口口②口 |----|
口口口口 |--②-|
70
口口口口 |----|
口口口口 |①---|
口口口口 |----|
口①口口 |----|
71
口口①① |①---|
口②口口 |----|
口口口口 |----|
口口口口 |--②-|
72
口口口口 |----|
口口口口 |①---|
口口①口 |--②-|
口口口② |----|
73
①①口口 |①---|
口口口口 |----|
口口②口 |----|
口口口口 |--②-|
74
口口口口 |----|
口口口口 |①---|
口口口口 |----|
口①口口 |----|
75
口口①① |①---|
口②口口 |----|
口口口口 |----|
口口口口 |--②-|
76
口口口口 |----|
口口口口 |①---|
口口①口 |--②-|
口口口② |----|
77
①①口口 |①---|
口口口口 |----|
口口②口 |----|
口口口口 |--②-|
78
口口口口 |----|
口口口口 |①---|
口口口口 |----|
口①口口 |----|
79
④口口① |①---|
口口口② |②---|
口口口③ |③---|
口口口口 |④---|
80
④口口口 |①---|
①口口口 |②---|
②③③口 |③---|
口口口口 |④---|
81
口口口③ |①---|
①口口口 |②---|
②口口口 |③---|
口口口口
82
口口口④ |①---|
口口口① |②---|
口③③② |③---|
口口口口 |④---|
83
③口口口 |①---|
口口口① |②---|
口口口② |③---|
口口口口
84
口口口口 |①---|
①口口口 |②---|
②④④口 |③---|
口③口口 |④---|
85
口口口口 |--①-|
①②②① |----|
口口口口 |②---|
口口口口
86
①②②① |--①-|
口口口口 |----|
口口口口 |②---|
口口口口 |----|

accuracy: 100%
最終更新:2022年05月29日 04:31