アットウィキロゴ
ネリと琥珀糖
sasakure.UK

ADVANCED

Level: 8
BPM: 170
Notes: 666

1
口口口口 |----|
口口口口 |----|
口口口口 |----|
口口口口 |----|
2
④③④③ |①-②-|
⑤②⑤② |③-④-|
⑥①⑥① |⑤-⑥-|
⑧⑨口⑦ |⑦-⑧⑨|
3
口口②③ |①-②-|
④⑦口⑦ |③-④-|
⑤⑥口⑥ |⑤---|
口口①口 |⑥-⑦-|
4
②①②① |①-②-|
③口③口 |③-④-|
④口④口 |⑤-⑥⑦|
⑥⑦口⑤
5
口口②③ |①-②-|
④⑥口⑥ |③-④-|
⑤⑦口⑦ |⑤---|
口口①口 |⑥-⑦-|
6
③①③① |①-②-|
②口②口 |③-④-|
④口④口 |⑤-⑥⑦|
⑥⑦口⑤
7
口口④口 |①-②-|
口口口③ |③-④-|
口②口口
口口①口

口⑥口口
⑤口口口
口口口口 |⑤-⑥-|
⑦口⑦口 |⑦---|
8
口口口口 |--①-|
②口②口 |----|
口①口① |②---|
口口口口
9
口①口① |--①-|
口口口口 |----|
口②②口 |②---|
口③③口 |③---|
10
⑤⑥⑦⑧ |①-②-|
①②③④ |③-④-|
口口口口 |⑤-⑥-|
口口口口 |⑦-⑧-|
11
口口口口 |①---|
口①①口 |----|
口口口口 |②---|
②口口② |----|
12
⑤口口口 |①---|
口口口口 |②-③-|
③口①④ |--④-|
口②口口 |--⑤-|
13
口口口③ |--①-|
口口②口 |②-③-|
口①口口 |----|
④口口口 |④---|
14
③口口口 |①-②-|
口②④口 |③-④-|
口口①口
口口口口

口口口口
⑧口口⑧
口口⑦⑤ |⑤-⑥-|
口⑥口口 |⑦-⑧-|
15
③口口③ |--①-|
口口②口 |②-③-|
口①口口 |--④-|
口口口④ |----|
16
⑤口口⑤ |①---|
口口口④ |②-③-|
③口①口 |--④-|
口②口口 |--⑤-|
17
口口口口 |--①-|
③④口③ |②-③-|
⑤②口口 |--④-|
口口①口 |⑤---|
18
④③②① |①-②-|
⑦⑥⑤口 |③-④-|
口口口口 |⑤-⑥-|
口口口口 |⑦---|
19
口口口口 |----|
口口口口 |----|
口口口口 |----|
口口口口 |----|
20
口⑥口口 |①-②-|
口⑦口口 |③④⑤-|
③④⑤① |⑥-⑦-|
口⑧⑧② |⑧---|
21
口③④口 |--①-|
口⑤②口 |②-③-|
口口口① |--④-|
口口口口 |⑤---|
22
口⑥口口 |①-②-|
口⑦口口 |③④⑤-|
③④⑤① |⑥-⑦-|
口⑧⑧② |⑧---|
23
口口④③ |--①-|
口口②⑤ |②-③-|
口①口口 |--④-|
口口口口 |⑤---|
24
口口口口 |①-②-|
口口口口 |③-④-|
⑤⑥⑦⑧ |⑤-⑥-|
①②③④ |⑦-⑧-|
25
⑤⑥⑦⑧ |①-②-|
①②③④ |③-④-|
口口口口 |⑤-⑥-|
口口口口 |⑦-⑧-|
26
口口口口 |①-②-|
口口口口 |③-④-|
⑤⑥⑦⑧ |⑤-⑥-|
①②③④ |⑦-⑧-|
27
⑤⑥⑦⑧ |①-②-|
①②③④ |③-④-|
口口口口 |⑤-⑥-|
口口口口 |⑦-⑧-|
28
⑬⑭⑮⑯ |①②③④|
⑨⑩⑪⑫ |⑤⑥⑦⑧|
⑤⑥⑦⑧ |⑨⑩⑪⑫|
①②③④ |⑬⑭⑮⑯|
29
⑬⑭⑮⑯ |①②③④|
⑨⑩⑪⑫ |⑤⑥⑦⑧|
⑤⑥⑦⑧ |⑨⑩⑪⑫|
①②③④ |⑬⑭⑮⑯|
30
⑬⑭⑮⑯ |①②③④|
⑨⑩⑪⑫ |⑤⑥⑦⑧|
⑤⑥⑦⑧ |⑨⑩⑪⑫|
①②③④ |⑬⑭⑮⑯|
31
⑬⑭⑮⑯ |①②③④|
⑨⑩⑪⑫ |⑤⑥⑦⑧|
⑤⑥⑦⑧ |⑨⑩⑪⑫|
①②③④ |⑬⑭⑮⑯|
32
⑬⑭⑮⑯ |①②③④|
⑨⑩⑪⑫ |⑤⑥⑦⑧|
⑤⑥⑦⑧ |⑨⑩⑪⑫|
①②③④ |⑬⑭⑮⑯|
33
⑬⑭⑮⑯ |①②③④|
⑨⑩⑪⑫ |⑤⑥⑦⑧|
⑤⑥⑦⑧ |⑨⑩⑪⑫|
①②③④ |⑬⑭⑮⑯|
34
口口口⑥ |----|
⑤口口⑥ |①②③④|
①②③④ |⑤---|
口口口口 |--⑥-|
35
口口口口 |----|
口口口口 |--①②|
①②口口
口口口口
36
④⑤口口 |①②③-|
口口⑦⑥ |④⑤⑥⑦|
口口口口
口③②①

口口口口
口⑧口口
⑨⑩口口 |⑧-⑨⑩|
口⑬⑫⑪ |⑪⑫⑬-|
37
②口口① |①---|
口口口口 |--②-|
②口口① |----|
③④口口 |--③④|
38
口⑧⑦⑥ |①②③-|
④⑤口口 |④⑤⑥⑦|
口③②① |⑧---|
⑨⑩⑪⑫ |⑨⑩⑪⑫|
39
口口口② |①---|
口口口② |--②-|
①口口口
口口口口

口口口口
口口口口
③④口口 |----|
口口口口 |--③④|
40
④⑤口口 |①②③-|
口口⑦⑥ |④⑤⑥⑦|
口口口口
口③②①

口口口口
口⑧口口
⑨⑩口口 |⑧-⑨⑩|
口⑬⑫⑪ |⑪⑫⑬-|
41
②口口① |①---|
口口口口 |--②-|
②口口① |----|
③④口口 |--③④|
42
口⑧⑦⑥ |①②③-|
④⑤口口 |④⑤⑥⑦|
口③②① |⑧---|
⑨⑩⑪⑫ |⑨⑩⑪⑫|
43
口口口② |①---|
口口口② |--②-|
①口口口
口口口口

口口口口
口口口口
③④口口 |----|
口口口口 |--③④|
44
④⑤口口 |①②③-|
口口⑦⑥ |④⑤⑥⑦|
口口口口
口③②①

口口口口
口⑧口口
⑨⑩口口 |⑧-⑨⑩|
口⑬⑫⑪ |⑪⑫⑬-|
45
②口口① |①---|
口口口口 |--②-|
②口口① |----|
③④口口 |--③④|
46
口⑧⑦⑥ |①②③-|
④⑤口口 |④⑤⑥⑦|
口③②① |⑧---|
⑨⑩⑪⑫ |⑨⑩⑪⑫|
47
口口③口 |①---|
口口②③ |②-③-|
①口口②
口口口口

④口口口
口⑦口口
⑦⑥口口 |④-⑤-|
⑥口⑤口 |⑥-⑦-|
48
⑤①②口 |①-②-|
①口③② |③-④-|
口口④③ |⑤-⑥-|
口口⑥④
49
口②口③ |①-②-|
②①⑥口 |③-④-|
①口⑤⑥ |⑤-⑥-|
口④口⑤
50
⑤②①⑤ |①-②-|
②③口① |③-④-|
③④口口 |⑤---|
④口口口
51
口口口口 |--①-|
口口口口 |----|
口口②口 |②---|
口口①口
52
②口口② |--①-|
口口①口 |----|
口口口口 |②-③-|
③口口③ |----|
53
⑤口口口 |①---|
口口口口 |②-③-|
③口①④ |--④-|
口②口口 |--⑤-|
54
口口口③ |--①-|
口口②口 |②-③-|
口①口口 |----|
④口口口 |④---|
55
③口口口 |①-②-|
口②④口 |③-④-|
口口①口
口口口口

口口口口
⑧口口⑧
口口⑦⑤ |⑤-⑥-|
口⑥口口 |⑦-⑧-|
56
③口口③ |--①-|
口口②口 |②-③-|
口①口口 |--④-|
口口口④ |----|
57
⑤口口⑤ |①---|
口口口④ |②-③-|
③口①口 |--④-|
口②口口 |--⑤-|
58
口口口口 |--①-|
③④口③ |②-③-|
⑤②口口 |--④-|
口口①口 |⑤---|
59
④③②① |①-②-|
⑦⑥⑤口 |③-④-|
口口口口 |⑤-⑥-|
口口口口 |⑦---|
60
口口口口 |--①-|
口口口口 |②-③-|
④⑤⑥⑦ |④-⑤-|
口①②③ |⑥-⑦-|
61
⑤⑥⑦⑧ |①-②-|
①②③④ |③-④-|
口口口口 |⑤-⑥-|
口口口口 |⑦-⑧-|
62
口口口口 |----|
口口口口 |----|
口口口口 |----|
口口口口 |----|
63
口口口口 |①---|
①口口② |--②-|
③口口口 |----|
口口口口 |--③-|
64
①口口口 |----|
口口口口 |①---|
②口口口 |--②-|
口口口口 |----|
65
②口口① |①---|
口口口口 |--②-|
口口口口 |----|
③口口口 |--③-|
66
口口口口 |----|
①口口口 |①---|
②口口口 |----|
口口口口 |②---|
67
口口口口 |①---|
①口口② |--②-|
③口口口 |----|
口口口口 |--③-|
68
①口口口 |----|
口口口口 |①---|
②口口口 |--②-|
口口口口 |----|
69
②口口① |①---|
口口口口 |--②-|
口口口口 |----|
③口口口 |--③-|
70
口口口口 |----|
①口口口 |①---|
口口口口 |----|
②③④⑤ |②③④⑤|
71
口口口② |①---|
口口口② |--②-|
①口口口
口口口口

口口口口
口口口口
③④口口 |----|
口口口口 |--③④|
72
④⑤口口 |①②③-|
口口⑦⑥ |④⑤⑥⑦|
口口口口
口③②①

口口口口
口⑧口口
⑨⑩口口 |⑧-⑨⑩|
口⑬⑫⑪ |⑪⑫⑬-|
73
②口口① |①---|
口口口口 |--②-|
②口口① |----|
③④口口 |--③④|
74
口⑧⑦⑥ |①②③-|
④⑤口口 |④⑤⑥⑦|
口③②① |⑧---|
⑨⑩⑪⑫ |⑨⑩⑪⑫|
75
口口②② |①---|
口口口② |--②-|
①口口口
口口口口

口口口口
口口口口
③④口口 |----|
口口口口 |--③④|
76
④⑤口口 |①②③-|
口口⑦⑥ |④⑤⑥⑦|
口口口口
口③②①

口口口口
口⑧口口
⑨⑩口口 |⑧-⑨⑩|
口⑬⑫⑪ |⑪⑫⑬-|
77
②口口① |①---|
①口口② |--②-|
②口口① |----|
③④口口 |--③④|
78
口⑧⑦⑥ |①②③-|
④⑤口口 |④⑤⑥⑦|
口③②① |⑧--⑨|
口⑨⑨口 |----|
79
④③④③ |①-②-|
⑤②⑤② |③-④-|
⑥①⑥① |⑤-⑥-|
⑧⑨口⑦ |⑦-⑧⑨|
80
口口②③ |①-②-|
④⑦口⑦ |③-④-|
⑤⑥口⑥ |⑤---|
口口①口 |⑥-⑦-|
81
②①②① |①-②-|
③口③口 |③-④-|
④口④口 |⑤-⑥⑦|
⑥⑦口⑤
82
口口②③ |①-②-|
④⑥口⑥ |③-④-|
⑤⑦口⑦ |⑤---|
口口①口 |⑥-⑦-|
83
②①②① |①-②-|
③口③口 |③-④-|
④口④口 |⑤-⑥⑦|
⑥⑦口⑤
84
口口④口 |①-②-|
口口口③ |③-④-|
口②口口
口口①口

口⑥口口
⑤口口口
口口口口 |⑤-⑥-|
⑦口⑦口 |⑦---|
85
口口口口 |①---|
②口②口 |--②-|
口①口① |----|
口口口口
86
口①口① |--①-|
口口口口 |----|
口口②口 |---②-|
口口口口 |----|

accuracy: 100%
最終更新:2022年05月29日 16:24