アットウィキロゴ
ネリと琥珀糖
sasakure.UK

EXTREME

Level: 10.3
BPM: 170
Notes: 885

1
口口口口 |----|
口口口口 |----|
口口口口 |----|
口口口口 |----|
2
④②④② |①-②-|
口口口口 |③-④-|
口③口③
①口①口

口口口⑧
口⑥⑨⑥
口口口口 |⑤-⑥-|
⑦⑤⑦⑤ |⑦-⑧⑨|
3
②⑦③⑦ |①-②-|
口④口⑤ |③-④-|
②①③口 |⑤---|
⑥④⑥⑤ |⑥-⑦-|
4
②口②⑥ |①-②-|
口④⑦④ |③-④-|
口①口① |⑤-⑥⑦|
⑤③⑤③
5
口②④口 |①-②-|
口口口口 |③-④-|
口①口口
口口口③

口⑦口口
口口口⑦
⑥口口口 |⑤---|
⑤口⑥口 |⑥-⑦-|
6
口⑥③口 |①-②-|
③口⑦口 |③-④-|
⑤①④② |⑤-⑥⑦|
④②⑤①
7
②口④② |①-②-|
口口口④ |③-④-|
口①口口
口③口③

口⑥口口
⑥口口口
口⑦⑦⑦ |⑤-⑥-|
⑤口⑤口 |⑦---|
8
口口口口 |--①-|
②②②口 |----|
口口口口 |②---|
口①口口
9
②②②③ |--①-|
口口口口 |----|
口口口口 |②---|
口口①口 |③---|
10
口口口口 |①-②-|
口口⑧⑤ |③-④-|
口⑦④② |⑤-⑥-|
⑥③①口 |⑦-⑧-|
11
①口口① |①---|
口③口口 |----|
口口④口 |②---|
②②口口 |--③④|
12
口口口④ |①---|
③口口口 |②-③-|
口口口口 |--④-|
⑤②⑤① |--⑤-|
13
口③口③ |--①-|
口②口口 |②-③-|
口①口口 |----|
④口口口 |④---|
14
⑦⑧⑨③ |①-②-|
口④口② |③-④⑤|
口口⑤① |⑥-⑦-|
口⑥口口 |⑧-⑨-|
15
口口口口 |--①-|
口口口口 |②-③-|
口③②①
口口口口

口口口④
口口⑥口
口口口⑤ |--④-|
口口口口 |--⑤⑥|
16
口①口口 |①---|
口口口③ |②-③-|
口口口口
口口②口

④⑤口⑤
口口口口
口口口口 |--④-|
口口口口 |--⑤-|
17
口口口口 |--①-|
③口③口 |②-③-|
②口口口 |--④-|
①口④⑤ |⑤---|
18
口口②① |①-②-|
④③口口 |③-④-|
⑦⑥⑤口 |⑤-⑥-|
口口口口 |⑦---|
19
口口口口 |--①-|
口口⑦④ |②-③-|
口⑥③① |④-⑤-|
⑤②口口 |⑥-⑦-|
20
①口⑥① |①-②-|
口③⑦口 |③④⑤-|
口口④口 |⑥-⑦-|
⑧⑤⑧② |⑧---|
21
口④口口 |--①-|
⑤口口③ |②-③-|
口口②口 |--④-|
口①口口 |⑤---|
22
①⑥口① |①-②-|
口⑦③口 |③④⑤-|
口④口口 |⑥-⑦-|
②⑧⑤⑧ |⑧---|
23
口口④口 |--①-|
③口口⑤ |②-③-|
口②口口 |--④-|
口口①口 |⑤---|
24
⑤①⑤① |①-②-|
④⑧口口 |③-④-|
③⑦口口 |⑤-⑥-|
②⑥口口 |⑦-⑧-|
25
⑤①⑤① |①-②-|
口口④⑧ |③-④-|
口口③⑦ |⑤-⑥-|
口口②⑥ |⑦-⑧-|
26
⑤①⑤① |①-②-|
④⑧口口 |③-④-|
③⑦口口 |⑤-⑥-|
②⑥口口 |⑦-⑧-|
27
⑤①⑤① |①-②-|
口口④⑧ |③-④-|
口口③⑦ |⑤-⑥-|
口口②⑥ |⑦-⑧-|
28
⑤⑨⑬① |①②③④|
④⑧⑫⑯ |⑤⑥⑦⑧|
③⑦⑪⑮ |⑨⑩⑪⑫|
②⑥⑩⑭ |⑬⑭⑮⑯|
29
口⑤口① |①②③④|
口④⑧口 |⑤⑥⑦⑧|
口③⑦口
口②⑥口

口口⑨⑬
⑯口口⑫
⑮口口⑪ |⑨⑩⑪⑫|
⑭口口⑩ |⑬⑭⑮⑯|
30
①口⑤口 |①②③④|
口口④⑧ |⑤⑥⑦⑧|
口口③⑦
口口②⑥

⑬口口⑨
⑫⑯口口
⑪⑮口口 |⑨⑩⑪⑫|
⑩⑭口口 |⑬⑭⑮⑯|
31
口①口⑤ |①②③④|
⑧口口④ |⑤⑥⑦⑧|
⑦口口③
⑥口口②

⑨⑬口口
口⑫⑯口
口⑪⑮口 |⑨⑩⑪⑫|
口⑩⑭口 |⑬⑭⑮⑯|
32
⑤口①口 |①②③④|
④⑧口口 |⑤⑥⑦⑧|
③⑦口口
②⑥口口

口⑨⑬口
口口⑫⑯
口口⑪⑮ |⑨⑩⑪⑫|
口口⑩⑭ |⑬⑭⑮⑯|
33
口⑤口① |①②③④|
口④⑧口 |⑤⑥⑦⑧|
口③⑦口
口②⑥口

口口⑨⑬
⑯口口⑫
⑮口口⑪ |⑨⑩⑪⑫|
⑭口口⑩ |⑬⑭⑮⑯|
34
⑥口口⑤ |----|
口口③④ |①②③④|
⑦①②⑧ |⑤-⑥-|
口口口口 |⑦-⑧-|
35
口⑤④口 |--①②|
口口③口 |③-④⑤|
口②口口
①口口口
36
①口口口 |①②③-|
②口口④ |④⑤⑥⑦|
③口口⑤
口口⑦⑥

⑪⑩⑨口
⑫口口口
⑬口口口 |⑧-⑨⑩|
口⑧口口 |⑪⑫⑬-|
37
口口④② |①-②-|
口①口① |③-④-|
口口④②
口③口③

口口口口
口口⑤⑧
口⑥口⑨ |--⑤⑥|
⑦口口口 |⑦-⑧⑨|
38
⑥⑤④口 |①②③-|
⑦⑨⑫⑬ |④⑤⑥⑦|
⑧⑩⑪口 |⑧--⑨|
口③②① |⑩⑪⑫⑬|
39
②⑨⑧① |①-②-|
口口⑦口 |③-④-|
③⑥口④ |--⑤⑥|
⑤口口口 |⑦-⑧⑨|
40
①口口口 |①②③-|
②口口④ |④⑤⑥⑦|
③口口⑤
口口⑦⑥

⑪⑩⑨口
⑫口口口
⑬口口口 |⑧-⑨⑩|
口⑧口口 |⑪⑫⑬-|
41
口口④② |①-②-|
口①口① |③-④-|
口口④②
口③口③

口口口口
口口⑤⑧
口⑥口⑨ |--⑤⑥|
⑦口口口 |⑦-⑧⑨|
42
⑥⑤④口 |①②③-|
⑦⑨⑫⑬ |④⑤⑥⑦|
⑧⑩⑪口 |⑧--⑨|
口③②① |⑩⑪⑫⑬|
43
②⑨⑧① |①-②-|
口口⑦口 |③-④-|
③⑥口④ |--⑤⑥|
⑤①口④ |⑦-⑧⑨|
44
①口口口 |①②③-|
②口口④ |④⑤⑥⑦|
③口口⑤
口口⑦⑥

⑪⑩⑨口
⑫口口口
⑬口口口 |⑧-⑨⑩|
口⑧口口 |⑪⑫⑬-|
45
口口④① |①-②-|
口口口① |③-④-|
口口④口
口④③②

口口口口
口口⑤⑧
口⑥口⑨ |--⑤⑥|
⑦口口口 |⑦-⑧⑨|
46
⑥⑤④口 |①②③-|
⑦⑨⑫⑬ |④⑤⑥⑦|
⑧⑩⑪口 |⑧--⑨|
口③②① |⑩⑪⑫⑬|
47
③口口① |①-②-|
④口口口 |③④⑤-|
⑤口口②
①①⑤⑤

口⑦口⑧
口口⑨口
口⑥口口 |⑥-⑦-|
⑧⑧口口 |⑧-⑨-|
48
口④口⑤ |①-②-|
口③口口 |③-④-|
②口①⑥ |⑤-⑥-|
⑤⑤②②
49
①⑤口⑥ |①②③-|
②口⑦口 |④-⑤-|
③④口口 |⑥-⑦-|
⑥⑥③③
50
⑤④⑤⑤ |①-②-|
口③口口 |③-④-|
②口①口 |⑤---|
口口②②
51
口口口口 |--①-|
②口②② |----|
①口①① |②---|
口口口口
52
③口③③ |--①-|
②④②② |----|
口口⑤口 |②-③-|
①口①① |--④⑤|
53
口④口④ |①---|
③口③口 |②-③-|
⑤口口口 |--④-|
⑤②⑤① |--⑤-|
54
口③口③ |--①-|
口②口③ |②-③-|
口①口口 |----|
④口口口 |④---|
55
⑦⑧⑨③ |①-②-|
口④⑨② |③-④⑤|
口口⑤① |⑥-⑦-|
口⑥口口 |⑧-⑨-|
56
口口口口 |--①-|
口③口口 |②-③-|
口③②①
口口口口

口口口④
口口⑥口
口口口⑤ |--④-|
口口口口 |--⑤⑥|
57
口①口口 |①---|
口③口③ |②-③-|
口口口口
口口②口

④⑤④⑤
口口口口
口口⑤口 |--④-|
口口口口 |--⑤-|
58
口口口口 |--①-|
③口③口 |②-③-|
②口口口 |--④-|
①口④⑤ |⑤---|
59
⑦口②① |①-②-|
④③口口 |③-④-|
⑦⑥⑤口 |⑤-⑥-|
口口口口 |⑦---|
60
口口口口 |--①-|
口口口口 |②-③-|
④⑤⑥⑦ |④-⑤-|
口①②③ |⑥-⑦-|
61
⑤⑥⑦⑧ |①-②-|
①②③④ |③-④-|
口口口口 |⑤-⑥-|
口口口口 |⑦-⑧-|
62
口口口口 |----|
口口③④ |----|
口①②口 |----|
口口口口 |①②③④|
63
②⑨⑧① |①-②-|
口口⑦口 |③-④-|
③⑥口④ |--⑤⑥|
⑤口口口 |⑦-⑧⑨|
64
①口口口 |①②③-|
②口口④ |④⑤⑥⑦|
③口口⑤
口口⑦⑥

⑪⑩⑨口
⑫口口口
⑬口口口 |⑧-⑨⑩|
口⑧口口 |⑪⑫⑬-|
65
口口④② |①-②-|
口①口① |③-④-|
口口④②
口③口③

口口口口
口口⑤⑧
口⑥口⑨ |--⑤⑥|
⑦口口口 |⑦-⑧⑨|
66
⑥⑤④口 |①②③-|
⑦⑨⑫⑬ |④⑤⑥⑦|
⑧⑩⑪口 |⑧--⑨|
口③②① |⑩⑪⑫⑬|
67
②⑨⑧① |①-②-|
口口⑦口 |③-④-|
③⑥口④ |--⑤⑥|
⑤口口口 |⑦-⑧⑨|
68
①口口口 |①②③-|
②口口④ |④⑤⑥⑦|
③口口⑤
口口⑦⑥

⑪⑩⑨口
⑫口口口
⑬口口口 |⑧-⑨⑩|
口⑧口口 |⑪⑫⑬-|
69
口口④② |①-②-|
口①口① |③-④-|
口口④②
口③口③

口口口口
口口⑤⑧
口⑥口⑨ |--⑤⑥|
⑦口口口 |⑦-⑧⑨|
70
⑥⑤④口 |①②③-|
⑦⑨⑫⑬ |④⑤⑥⑦|
⑧⑩⑪口 |⑧--⑨|
口③②① |⑩⑪⑫⑬|
71
②⑨⑧① |①-②-|
口口⑦口 |③-④-|
③⑥口④ |--⑤⑥|
⑤①口④ |⑦-⑧⑨|
72
①口口口 |①②③-|
②口口④ |④⑤⑥⑦|
③口口⑤
口口⑦⑥

⑪⑩⑨口
⑫口口口
⑬口口口 |⑧-⑨⑩|
口⑧口口 |⑪⑫⑬-|
73
口口④① |①-②-|
口口口① |③-④-|
口口④口
口④③②

口口口口
口口⑤⑧
口⑥口⑨ |--⑤⑥|
⑦口口口 |⑦-⑧⑨|
74
⑥⑤④口 |①②③-|
⑦⑨⑫⑬ |④⑤⑥⑦|
⑧⑩⑪口 |⑧--⑨|
口③②① |⑩⑪⑫⑬|
75
②⑨⑧① |①-②-|
口口⑦口 |③-④-|
③⑥⑧④ |--⑤⑥|
⑤①口④ |⑦-⑧⑨|
76
①口口口 |①②③-|
②④口④ |④⑤⑥⑦|
③口口⑤
口口⑦⑥

⑪⑩⑨口
⑫口口口
⑬口⑨口 |⑧-⑨⑩|
口⑧口口 |⑪⑫⑬-|
77
口口④① |①-②-|
口①口① |③-④-|
口口④口
口④③②

口口口口
口⑧⑤⑧
口⑥口⑨ |--⑤⑥|
⑦口口口 |⑦-⑧⑨|
78
⑥⑤④口 |①②③-|
⑦⑨⑨口 |④⑤⑥⑦|
⑧口④口 |⑧--⑨|
口③②① |----|
79
④②④② |①-②-|
口口口口 |③-④-|
口③口③
①口①口

口口口⑧
口⑥⑨⑥
口口口口 |⑤-⑥-|
⑦⑤⑦⑤ |⑦-⑧⑨|
80
②⑦③⑦ |①-②-|
口④口⑤ |③-④-|
②①③口 |⑤---|
⑥④⑥⑤ |⑥-⑦-|
81
②口②⑥ |①-②-|
口④⑦④ |③-④-|
口①口① |⑤-⑥⑦|
⑤③⑤③
82
口②④口 |①-②-|
口口口口 |③-④-|
口①口口
口口口③

口⑦口口
口口口⑦
⑥口口口 |⑤---|
⑤口⑥口 |⑥-⑦-|
83
口⑥③口 |①-②-|
③口⑦口 |③-④-|
⑤①④② |⑤-⑥⑦|
④②⑤①
84
②口④② |①-②-|
口口口④ |③-④-|
口①口口
口③口③

口⑥口口
⑥口口口
口⑦⑦⑦ |⑤-⑥-|
⑤口⑤口 |⑦---|
85
口口口口 |--①-|
②②②口 |----|
口口口口 |②---|
口①口口
86
口④⑤⑥ |--①-|
口口口口 |-----------②|?
②③口口 |--③----④--⑤----⑥--------|?
口口①口 |----|

accuracy: 99%
最終更新:2022年06月05日 03:40