アットウィキロゴ
スイーツはとまらない♪
日向美ビタースイーツ♪

BASIC

Level: 2
BPM: 204
Notes: 242

1
口口口口 |----|
口口口口 |----|
口口口口 |----|
口口口口 |----|
2
口口口口 |----|
口口口口 |----|
口口口口 |----|
口口口口 |----|
3
①口口① |①---|
口口口口 |----|
口口口口 |----|
口口口口 |----|
4
口口口口 |①---|
口①①口 |----|
口②②口 |②---|
口口口口 |----|
5
口口口口 |①---|
口口口口 |----|
口口口口 |----|
口①①口 |----|
6
口口口口 |①---|
②口口② |----|
①口口① |②---|
口口口口 |----|
7
①口口① |①---|
口口口口 |----|
口口口口 |----|
口口口口 |----|
8
口口口口 |①---|
口①①口 |----|
口②②口 |②---|
口口口口 |----|
9
口口口口 |①---|
口口口口 |----|
口口口口 |----|
口①①口 |----|
10
口口口口 |①---|
口口口口 |----|
口②①口 |②---|
口口口口 |----|
11
①口口① |①---|
口口口口 |----|
口口口口 |----|
口口口口 |----|
12
口口口口 |①---|
口①①口 |----|
口②②口 |②---|
口口口口 |----|
13
口口口口 |①---|
口口口口 |----|
口口口口 |----|
口①①口 |----|
14
口口口口 |①---|
②口口② |----|
①口口① |②---|
口口口口 |----|
15
①口口① |①---|
口口口口 |----|
口口口口 |----|
口口口口 |----|
16
口口口口 |①---|
口①①口 |----|
口②②口 |②---|
口口口口 |----|
17
口口口口 |①---|
口口口口 |----|
口口口口 |----|
口①①口 |----|
18
口口口口 |①---|
口口口口 |----|
口②①口 |②---|
口口口口 |----|
19
①口①口 |①---|
口口口口 |----|
口口口口 |----|
口口口口 |----|
20
口口口口 |①---|
口②①口 |----|
口口口口 |②---|
口口口口 |----|
21
口口口口 |①---|
①口口口 |----|
口口口口 |----|
口口口口 |----|
22
口口口口 |①---|
口口口口 |----|
口①②口 |②---|
口口口口 |----|
23
口口口口 |①---|
口口口口 |----|
口口口① |----|
口口口口 |----|
24
口口口口 |①---|
口口口口 |----|
口口口口 |②---|
口②①口 |----|
25
口口口口 |①---|
口口口口 |----|
口口口口 |----|
①口口口 |----|
26
口口口口 |①---|
口口口口 |----|
口②①口 |②---|
口口口口 |----|
27
口①口① |①---|
口口口口 |----|
口口口口 |----|
口口口口 |----|
28
口口口口 |①---|
口①②口 |----|
口口口口 |②---|
口口口口 |----|
29
口口口口 |①---|
口口口① |----|
口口口口 |----|
口口口口 |----|
30
口口口口 |①---|
口口口口 |----|
口②①口 |②---|
口口口口 |----|
31
口口口口 |①---|
口口口口 |----|
①口口口 |----|
口口口口 |----|
32
口口口口 |①---|
口口口口 |----|
口口口口 |②---|
口①②口 |----|
33
口口口口 |①---|
口口口口 |----|
口口口口 |----|
口口口① |----|
34
口口口口 |①---|
口口口口 |----|
口②①口 |②---|
口口口口 |----|
35
口口口口 |①---|
口口口口 |----|
口口口② |②---|
口口①口 |----|
36
口口口口 |①---|
口口口口 |----|
②口口口 |②---|
口①口口 |----|
37
口口口口 |①---|
口口口② |----|
口口①口 |②---|
口口口口 |----|
38
口口口口 |①---|
②口口口 |----|
口①口口 |②---|
口口口口 |----|
39
口口口② |①---|
口口①口 |----|
口口口口 |②---|
口口口口 |----|
40
②口口口 |①---|
口①口口 |----|
口口口口 |②---|
口口口口 |----|
41
口口①口 |①---|
口口口② |----|
口口口口 |②---|
口口口口 |----|
42
口①口口 |①---|
②口口口 |----|
口口口口 |②---|
口口口口 |----|
43
口口口① |①---|
口口②口 |----|
口口口口 |②---|
口口口口 |----|
44
①口口口 |①---|
口②口口 |----|
口口口口 |②---|
口口口口 |----|
45
口口口口 |①---|
口口口① |----|
口口②口 |②---|
口口口口 |----|
46
口口口口 |①---|
①口口口 |----|
口②口口 |②---|
口口口口 |----|
47
口口口口 |①---|
口口口口 |----|
口口口① |②---|
口口②口 |----|
48
口口口口 |①---|
口口口口 |----|
①口口口 |②---|
口②口口 |----|
49
口口口口 |①---|
口②①口 |----|
口口口口 |②---|
口口口口 |----|
50
口①①口 |①---|
口口口口 |----|
口②②口 |②---|
口口口口 |----|
51
①口口① |①---|
②口口② |----|
口口口口 |②---|
口口口口 |----|
52
口口口口 |①---|
口①①口 |②---|
口②②口 |③---|
口③③口 |----|
53
口口口口 |①---|
口口口口 |----|
②口口② |②---|
①口口① |----|
54
口③③口 |①---|
口②②口 |②---|
口①①口 |③---|
口口口口 |----|
55
①口口① |①---|
②口口② |----|
口口口口 |②---|
口口口口 |----|
56
口口口口 |①---|
口①①口 |②---|
口②②口 |③---|
口③③口 |----|
57
口口口口 |①---|
口口口口 |----|
②口口② |②---|
①口口① |----|
58
口③③口 |①---|
口②②口 |②---|
口①①口 |③---|
口口口口 |----|
59
①口口① |①---|
②口口② |----|
口口口口 |②---|
口口口口 |----|
60
口口口口 |①---|
口①①口 |②---|
口②②口 |③---|
口③③口 |----|
61
口口口口 |①---|
口口口口 |----|
②口口② |②---|
①口口① |----|
62
口③③口 |①---|
口②②口 |②---|
口①①口 |③---|
口口口口 |----|
63
①口口① |①---|
②口口② |----|
口口口口 |②---|
口口口口 |----|
64
口口口口 |①---|
口①①口 |②---|
口②②口 |③---|
口③③口 |----|
65
口口口口 |①---|
口口口口 |----|
②口口② |②---|
①口口① |----|
66
口③③口 |①---|
口②②口 |②---|
口①①口 |③---|
口口口口 |----|
67
口口口口 |①---|
口口口口 |----|
口①①口 |----|
口口口口 |----|
68
口口口口 |①---|
口口口口 |----|
口口口口 |----|
口口①口 |----|
69
口口口口 |①---|
口①①口 |----|
口口口口 |----|
口口口口 |----|
70
口口口口 |①---|
口口口口 |----|
口口口口 |----|
口①口口 |----|
71
口口口口 |①---|
①口口① |----|
口口口口 |----|
口口口口 |----|
72
口口口口 |①---|
口口口口 |----|
口口口口 |----|
口口①口 |----|
73
①口口① |①---|
口口口口 |----|
口口口口 |----|
口口口口 |----|
74
口口口口 |①---|
口口口口 |----|
口口口口 |----|
口①口口 |----|
75
口口口口 |①---|
口口①口 |----|
口①口口 |----|
口口口口 |----|
76
口口口口 |①---|
口口口口 |----|
口口口口 |----|
口口①口 |----|
77
口口口口 |①---|
口①口口 |----|
口口①口 |----|
口口口口 |----|
78
口口口口 |①---|
口口口口 |----|
口口口口 |----|
口①口口 |----|
79
口口口口 |①---|
口口口① |----|
①口口口 |----|
口口口口 |----|
80
口口口口 |①---|
口口口口 |----|
口口口口 |----|
口口①口 |----|
81
口口口口 |①---|
①口口口 |----|
口口口① |----|
口口口口 |----|
82
口口口口 |①---|
口口口口 |----|
口口口口 |----|
口①口口 |----|
83
口口口口 |①---|
口口口口 |----|
口口口② |②---|
口口①口 |----|
84
口口口口 |①---|
口口口口 |----|
②口口口 |②---|
口①口口 |----|
85
口口口口 |①---|
口口口② |----|
口口①口 |②---|
口口口口 |----|
86
口口口口 |①---|
②口口口 |----|
口①口口 |②---|
口口口口 |----|
87
口口口② |①---|
口口①口 |----|
口口口口 |②---|
口口口口 |----|
88
②口口口 |①---|
口①口口 |----|
口口口口 |②---|
口口口口 |----|
89
口口①口 |①---|
口口口② |----|
口口口口 |②---|
口口口口 |----|
90
口①口口 |①---|
②口口口 |----|
口口口口 |②---|
口口口口 |----|
91
口口口① |①---|
口口②口 |----|
口口口口 |②---|
口口口口 |----|
92
①口口口 |①---|
口②口口 |----|
口口口口 |②---|
口口口口 |----|
93
口口口口 |①---|
口口口① |----|
口口②口 |②---|
口口口口 |----|
94
口口口口 |①---|
①口口口 |----|
口②口口 |②---|
口口口口 |----|
95
口口口口 |①---|
口口口口 |----|
口口口① |②---|
口口②口 |----|
96
口口口口 |①---|
口口口口 |----|
①口口口 |②---|
口②口口 |----|
97
口口口口 |①---|
口②①口 |----|
口口口口 |②---|
口口口口 |----|
98
②口口② |①---|
口口口口 |----|
口①①口 |②---|
口口口口 |----|

accuracy: 99.5%
最終更新:2023年01月17日 11:28