アットウィキロゴ
スイーツはとまらない♪
日向美ビタースイーツ♪

ADVANCED

Level: 5
BPM: 204
Notes: 376

1
口口口口 |----|
口口口口 |----|
口口口口 |----|
口口口口 |----|
2
口口口口 |----|
口口口口 |----|
口口口口 |----|
口口口口 |----|
3
口口口口 |①---|
口④②口 |②---|
口口口口 |③---|
口③①口 |④---|
4
口口口口 |①---|
④口口② |②---|
口口口口 |③---|
口③①口 |④---|
5
口④②口 |①---|
口口口口 |②---|
口③①口 |③---|
口口口口 |④---|
6
④口口② |①---|
口口口口 |②---|
口③①口 |③---|
口口口口 |④---|
7
④口口② |①---|
口口口口 |②---|
③口口① |③---|
口口口口 |④---|
8
口④②口 |①---|
口口口口 |②---|
③口口① |③---|
口口口口 |④---|
9
口口口口 |①---|
口④②口 |②---|
口口口口 |③---|
口③①口 |④---|
10
口口口口 |①---|
④口口② |②---|
口③①口 |③---|
口口口口 |④---|
11
④口口② |①---|
口口口口 |②---|
③口口① |③---|
口口口口 |④---|
12
口④②口 |①---|
口口口口 |②---|
③口口① |③---|
口口口口 |④---|
13
口口口口 |①---|
口④②口 |②---|
口口口口 |③---|
口③①口 |④---|
14
口口口口 |①---|
④口口② |②---|
口口口口 |③---|
口③①口 |④---|
15
④口口② |①---|
口口口口 |②---|
③口口① |③---|
口口口口 |④---|
16
口④②口 |①---|
口口口口 |②---|
③口口① |③---|
口口口口 |④---|
17
口口口口 |①---|
口④②口 |②---|
口口口口 |③---|
口③①口 |④---|
18
口口口口 |①---|
④口口② |②---|
口③①口 |③---|
口口口口 |④---|
19
口①①口 |①---|
口口①口 |----|
口口口口 |----|
口口口口 |----|
20
口口口口 |--①-|
口口①口 |--②-|
口④⑤口 |③---|
口②③口 |④-⑤-|
21
口口口口 |①---|
口①口口 |----|
口口口口 |----|
口口口口 |----|
22
口口口口 |--①-|
口④口① |--②-|
口口⑤口 |③---|
口②③口 |④-⑤-|
23
口口口口 |①---|
口口口口 |----|
口①口口 |----|
口口口口 |----|
24
④口①口 |--①-|
口口口口 |--②-|
口②③口 |③---|
口口口口 |④---|
25
口口口口 |①---|
口③③口 |----|
口②②口 |②---|
口①①口 |--③-|
26
①口口① |----|
口口口口 |①---|
口口口口 |----|
口口口口 |----|
27
口口口口 |①---|
口口口口 |----|
口①口口 |----|
口①①口 |----|
28
口口口口 |--①-|
口①口口 |--②-|
口⑤④口 |③---|
口③②口 |④-⑤-|
29
口口口口 |①---|
口口口① |----|
口口口口 |----|
口口口口 |----|
30
口①口口 |--①-|
口口④口 |--②-|
口⑤口口 |③---|
口③②口 |④-⑤-|
31
口口口口 |----|
口口口口 |----|
口口口口 |----|
口口口口 |----|
32
口口口口 |--①-|
①口口④ |--②-|
口口②口 |③---|
口③口口 |④---|
33
①口口口 |①---|
口③②口 |--②-|
口口口口 |③---|
口口口口 |----|
34
口①①口 |----|
口口口口 |----|
口口口口 |----|
口口口口 |--①-|
35
口口口口 |----|
口口①③ |①---|
口①②口 |②---|
口②口口 |--③-|
36
③④④口 |--①-|
口口口口 |--②-|
①口口口 |③---|
口口②口 |--④-|
37
口口口口 |----|
③①口口 |①---|
口②①口 |②---|
口口②口 |--③-|
38
②③③口 |--①-|
口口①口 |--②-|
口口口口 |----|
口口口口 |--③-|
39
口口③口 |----|
口口①口 |①---|
口①②口 |②---|
口②口口 |--③-|
40
口③口口 |--①-|
①口口② |--②-|
口口④口 |③---|
口口口口 |④---|
41
口口口口 |①---|
口口口口 |----|
口①口口 |----|
口口口口 |----|
42
口①①口 |----|
口口口口 |----|
口口口口 |----|
口口口口 |--①-|
43
口口口口 |----|
口①口③ |①---|
口②①口 |②---|
口口②口 |--③-|
44
③④④口 |--①-|
口口口口 |--②-|
①口②口 |③---|
口口口口 |--④-|
45
口口口口 |----|
口③①口 |①---|
口①②口 |②---|
口②口口 |--③-|
46
②口口口 |--①-|
口③③① |--②-|
口口口口 |----|
口口口口 |--③-|
47
③口口③ |----|
口口口口 |①---|
口②①口 |②---|
口①②口 |--③-|
48
口口口口 |--①-|
口口①口 |--②-|
口口口口 |③---|
④②③口 |④---|
49
①口口① |①---|
口口口口 |----|
口口口口 |----|
口口口口 |----|
50
④口口口 |①---②-|
③口口口 |--③---|
②口口口 |④---|
①口口口 |----|
51
口口口口 |①---|
口①①口 |----|
口①①口 |----|
口口口口 |----|
52
①口口① |--①-|
口口口口 |----|
口②②口 |②---|
③④④③ |③-④-|
53
口口口口 |----|
②口②口 |----|
口①口① |--①-|
口口口口 |--②-|
54
口①口① |--①-|
口④④口 |----|
③口口③ |②---|
口②②口 |③-④-|
55
口口口口 |----|
口口口口 |----|
口口口口 |----|
口口口口 |----|
56
①口口① |--①-|
③口口③ |----|
口②②口 |②---|
口④④口 |③-④-|
57
口口口口 |----|
口口口口 |----|
口口口口 |----|
口口口口 |----|
58
口口口口 |----|
口口口口 |----|
①②②① |--①-|
口口口口 |②---|
59
①口口① |①---|
口口口口 |----|
口口口口 |----|
口口口口 |----|
60
①口口① |--①-|
口口口口 |----|
口②②口 |②---|
③④④③ |③-④-|
61
口口口口 |----|
口②口② |----|
①口①口 |--①-|
口口口口 |--②-|
62
①口①口 |--①-|
口④④口 |----|
③口口③ |②---|
口②②口 |③-④-|
63
口口口口 |----|
口口口口 |----|
口口口口 |----|
口口口口 |----|
64
①口口① |--①-|
③④④③ |----|
口②②口 |②---|
口口口口 |③-④-|
65
口口口口 |----|
口口口口 |----|
口口口口 |----|
口口口口 |----|
66
口口口④ |①---②-|
口口口③ |--③---|
口口口② |④---|
口口口① |----|
67
口①①口 |①---|
口①口口 |----|
口口口口 |----|
口口口口 |----|
68
口口口口 |--①-|
口口①口 |--②-|
口④⑤口 |③---|
口②③口 |④-⑤-|
69
口口口口 |①---|
口①口口 |----|
口口口口 |----|
口口口口 |----|
70
口口口口 |--①-|
口④口① |--②-|
口口⑤口 |③---|
口②③口 |④-⑤-|
71
口口口口 |①---|
口口口口 |----|
口①口口 |----|
口口口口 |----|
72
④口口① |--①-|
口口口口 |--②-|
口②③口 |③---|
口口口口 |④---|
73
口口口口 |①---|
口口口口 |----|
口②③口 |②---|
口口①口 |--③-|
74
①口口口 |----|
口口口口 |①---|
口口口口 |----|
口口口口 |----|
75
口口口口 |①---|
口①口口 |----|
口①①口 |----|
口口口口 |----|
76
口口口口 |--①-|
口①口口 |--②-|
口⑤④口 |③---|
口③②口 |④-⑤-|
77
口口口口 |①---|
口口①口 |----|
口口口口 |----|
口口口口 |----|
78
口①口口 |--①-|
口口④口 |--②-|
口⑤口口 |③---|
口③②口 |④-⑤-|
79
口口口口 |----|
口口口口 |----|
口口口口 |----|
口口口口 |----|
80
口口口口 |--①-|
①口④口 |--②-|
口口②口 |③---|
口③口口 |④---|
81
口①口① |①---|
口口口④ |--②-|
口②②口 |③---|
口③③口 |--④-|
82
③④④② |--①-|
①口口口 |--②-|
口口口口 |--③-|
口口口口 |--④-|
83
口口口口 |----|
口口①③ |①---|
口①②口 |②---|
口②口口 |--③-|
84
③④④口 |--①-|
口口口口 |--②-|
①口口口 |③---|
口口②口 |--④-|
85
口口口口 |----|
③①口口 |①---|
口②①口 |②---|
口口②口 |--③-|
86
②③③口 |--①-|
口口①口 |--②-|
口口口口 |----|
口口口口 |--③-|
87
口口③口 |----|
口口①口 |①---|
口①②口 |②---|
口②口口 |--③-|
88
①口口口 |--①-|
口③②口 |--②-|
口口口口 |③---|
口口④口 |④---|
89
口口口口 |①---|
①口口① |--②-|
口口口口 |----|
②口口② |----|
90
口①①口 |----|
口口口口 |----|
口口口口 |----|
口口口口 |--①-|
91
口口口口 |----|
口①口③ |①---|
口②①口 |②---|
口口②口 |--③-|
92
③④④口 |--①-|
口口口口 |--②-|
①口②口 |③---|
口口口口 |--④-|
93
口口口口 |----|
口③①口 |①---|
口①②口 |②---|
口②口口 |--③-|
94
②口口口 |--①-|
口③③① |--②-|
口口口口 |----|
口口口口 |--③-|
95
③口口③ |----|
口口口口 |①---|
口②①口 |②---|
口①②口 |--③-|
96
口口口口 |--①-|
口口①口 |--②-|
②口口口 |③---|
口④③口 |④---|
97
①口口① |①---|
口口口口 |----|
口口口口 |----|
口口口口 |----|
98
口①①口 |①---②-|
口②②口 |--③---|
口③③口 |④---|
口④④口 |----|

accuracy: 99.5%
最終更新:2023年01月17日 11:29