アットウィキロゴ
スイーツはとまらない♪
日向美ビタースイーツ♪

EXTREME

Level: 8
BPM: 204
Notes: 590

1
口口口口 |----|
口口口口 |----|
口口口口 |----|
口口口口 |----|
2
口口口口 |----|
口口口口 |----|
口②②口 |--①-|
①口口① |②---|
3
口口口① |①---|
口口口口 |----|
口口口口 |----|
口口①口 |----|
4
①②②口 |--①-|
口④④口 |----|
口③口③ |②---|
口①口口 |③-④-|
5
口②①口 |----|
口口口口 |----|
口口口口 |--①-|
口②①口 |--②-|
6
①口口② |--①-|
②④④口 |----|
③口③口 |②---|
①口口口 |③-④-|
7
口口口口 |----|
口口口口 |----|
口口口口 |----|
口口口口 |----|
8
口口②① |--①-|
口②口口 |----|
③口③口 |②---|
口④④① |③-④-|
9
口口口口 |----|
口①口口 |----|
口口口口 |----|
口口口口 |--①-|
10
口口口① |--①-|
口口口② |--②-|
口④④口 |--③-|
③口口③ |④---|
11
①口口口 |①---|
口口口口 |----|
口口口口 |----|
口①口口 |----|
12
口②②① |--①-|
口④④口 |----|
③口③口 |②---|
口口①口 |③-④-|
13
口①②口 |----|
口口口口 |----|
口口口口 |--①-|
口①②口 |--②-|
14
②口口① |--①-|
口④④口 |----|
口③②③ |②---|
口口口① |③-④-|
15
口口口口 |----|
口口口口 |----|
口口口口 |----|
口口口口 |----|
16
①③口③ |--①-|
口④④口 |----|
口②②口 |②---|
①口口口 |③-④-|
17
口口口口 |----|
口口口口 |----|
口口口口 |----|
口口口口 |----|
18
口口口口 |①---|
①口口③ |②---|
口口口④ |③-④-|
②口口⑤ |⑤---|
19
口①口① |①---|
口口①口 |②-③-|
口②④⑥ |④-⑤-|
口③⑤⑦ |⑥-⑦-|
20
①口口口 |--①-|
口口②口 |--②-|
口③口口 |③---|
口⑤④口 |④-⑤-|
21
⑥④②口 |①---|
⑦⑤③口 |②-③-|
口口①口 |④-⑤-|
口口口口 |⑥-⑦-|
22
④口口① |--①-|
口口⑤口 |--②-|
口口口③ |③---|
口②口口 |④-⑤-|
23
口口口口 |①---|
口口口口 |②-③-|
①②④⑥ |④-⑤-|
口③⑤⑦ |⑥-⑦-|
24
口口①口 |--①-|
②口口口 |--②-|
④口③口 |③---|
口口口口 |④---|
25
②口②口 |①---|
口口口口 |----|
③①③口 |②---|
口口①口 |--③-|
26
口①口① |----|
口口口口 |①---|
口口口口 |----|
口口口口 |----|
27
①口①口 |①---|
口①口口 |②-③-|
①②④⑥ |④-⑤-|
口③⑤⑦ |⑥-⑦-|
28
口①口口 |--①-|
口口口② |--②-|
⑤③口口 |③---|
口口④口 |④-⑤-|
29
⑥④②① |①---|
⑦⑤③口 |②-③-|
口口口口 |④-⑤-|
口口口口 |⑥-⑦-|
30
④口口① |--①-|
口口⑤口 |--②-|
②口口口 |③---|
口口③口 |④-⑤-|
31
口口口口 |----|
口口口口 |①-②-|
口①③⑤ |③-④-|
口②④⑥ |⑤-⑥-|
32
③口口① |--①-|
②口口口 |--②-|
口口④口 |③---|
口口口口 |④---|
33
口①①口 |①---|
口①口① |----|
①①口口 |----|
①①口口 |----|
34
⑥⑥口口 |①---|
①口口③ |②---|
口口口④ |③-④-|
②口口⑤ |⑤-⑥-|
35
⑥口口⑥ |--①-|
口④③⑤ |②-③-|
口口①口 |④-⑤-|
口②口口 |--⑥-|
36
④口③④ |--①-|
①③口口 |--②-|
口②②口 |③---|
口口①口 |--④-|
37
口口口⑥ |--①-|
⑥口①口 |②-③-|
②④⑤③ |④-⑤-|
口口口口 |--⑥-|
38
②③③口 |--①-|
口口②口 |--②-|
口口口口 |----|
口①①口 |--③-|
39
口口⑥口 |--①-|
⑥口口③ |②-③-|
口②①口 |④-⑤-|
口④⑤口 |--⑥-|
40
③口口③ |--①-|
口口②④ |--②-|
④②口① |③---|
①口口口 |④---|
41
口口口口 |①---|
口口口口 |----|
口口口口 |----|
口①①口 |----|
42
⑥⑥口口 |①---|
①口口③ |②---|
口口口④ |③-④-|
②口口⑤ |⑤-⑥-|
43
口口口⑥ |--①-|
口⑥口⑤ |②-③-|
口②①口 |④-⑤-|
口④③口 |--⑥-|
44
④③③④ |--①-|
①口②口 |--②-|
口②①口 |③---|
口口口口 |--④-|
45
口⑥⑥口 |--①-|
⑤口口口 |②-③-|
④口口① |④-⑤-|
口③②口 |--⑥-|
46
③口口③ |--①-|
口②②口 |--②-|
口①①口 |----|
口口口口 |--③-|
47
口口⑦口 |--①-|
④⑦口口 |②-③-|
口②①③ |④-⑤-|
口⑥⑤口 |⑥-⑦-|
48
①口口口 |--①-|
口口口① |--②-|
②③③② |③---|
④口④口 |④---|
49
口①口口 |①---|
①①①口 |----|
口口口口 |----|
口口口口 |----|
50
口③②① |①---②-|
④③②① |--③---|
④⑥⑥口 |④-⑤-|
⑤口口⑤ |⑥---|
51
口口口① |①---|
⑦③②⑥ |②-③-|
⑤口口④ |④-⑤-|
口口①口 |⑥-⑦-|
52
②口③口 |①-②-|
口③⑤⑤ |----|
口④①④ |③---|
口②口口 |④-⑤-|
53
口⑤④口 |----|
①口口口 |①-②-|
③口②口 |③-④-|
口⑤④口 |--⑤-|
54
①口口口 |--①-|
④④②口 |----|
③②③口 |②---|
①口口口 |③-④-|
55
口⑤口口 |----|
口口④口 |①-②-|
口③口⑥ |③-④-|
口①②口 |⑤-⑥-|
56
口口③② |①-②-|
①③口口 |----|
④口④口 |③---|
口⑤⑤② |④-⑤-|
57
口④③口 |----|
口口①口 |①-②-|
⑥②⑤口 |③-④-|
口口口口 |⑤-⑥-|
58
口口⑤口 |①-②-|
④②口③ |③-④-|
口⑦⑦① |⑤-⑥-|
⑥口口⑥ |⑦---|
59
①口口口 |①---|
⑥②③⑦ |②-③-|
④口口⑤ |④-⑤-|
口①口口 |⑥-⑦-|
60
口③口② |①-②-|
⑤⑤③口 |----|
④①④口 |③---|
口口②口 |④-⑤-|
61
口④⑤口 |----|
口口口① |①-②-|
口②口③ |③-④-|
口④⑤口 |--⑤-|
62
口口口① |--①-|
口②④④ |----|
口③②③ |②---|
口口口① |③-④-|
63
口口⑤口 |----|
口④口口 |①-②-|
⑥口③口 |③-④-|
口②①口 |⑤-⑥-|
64
②④口④ |①-②-|
口⑤⑤① |----|
口③③口 |③---|
②口口口 |④-⑤-|
65
口口⑤口 |----|
口⑥口③ |①-②-|
口口口口 |③-④-|
④②①口 |⑤-⑥-|
66
口口口口 |①---②-|
④口口口 |--③---|
④③②① |④---|
口③②① |----|
67
口①口① |①---|
口口①口 |----|
口口口口 |----|
口口口口 |----|
68
口口①口 |--①-|
②口口口 |--②-|
口口③口 |③---|
口④⑤口 |④-⑤-|
69
口口口口 |①---|
口口口口 |----|
口①口口 |----|
口口口口 |----|
70
口口口口 |--①-|
①口④口 |--②-|
口⑤口口 |③---|
口③②口 |④-⑤-|
71
口口口口 |①---|
口口口口 |----|
口口①口 |----|
口口口口 |----|
72
②口口① |--①-|
口口口口 |--②-|
④口③口 |③---|
口口口口 |④---|
73
口口口口 |①---|
③口③口 |----|
口②口② |②---|
口①①口 |--③-|
74
口①口口 |----|
口口口① |①---|
口口口口 |----|
口口口口 |----|
75
①口①口 |①---|
口①口口 |----|
①口口口 |----|
口口口口 |----|
76
口口①口 |--①-|
口口口口 |--②-|
②口③口 |③---|
口④⑤口 |④-⑤-|
77
口口口口 |①---|
口口口口 |----|
口①口口 |----|
口口口口 |----|
78
①口口口 |--①-|
口口口口 |--②-|
口⑤④② |③---|
口③口口 |④-⑤-|
79
口口口口 |----|
口口口口 |----|
口口口口 |----|
口口口口 |----|
80
③口口① |--①-|
②口口口 |--②-|
口口④口 |③---|
口口口口 |④---|
81
②①①② |①---|
口①口① |----|
①①口口 |----|
①①口口 |--②-|
82
口④③④ |--①-|
③②口口 |--②-|
口口①② |--③-|
①口口口 |--④-|
83
⑥口口⑥ |--①-|
口口口口 |②-③-|
④口①⑤ |④-⑤-|
②口口③ |--⑥-|
84
④口③④ |--①-|
①③口口 |--②-|
口②②口 |③---|
口口①口 |--④-|
85
口口口⑥ |--①-|
⑥口①口 |②-③-|
②④⑤③ |④-⑤-|
口口口口 |--⑥-|
86
②③③口 |--①-|
口口②口 |--②-|
口口口口 |----|
口①①口 |--③-|
87
口口⑥口 |--①-|
口⑥口口 |②-③-|
②口①③ |④-⑤-|
口④⑤口 |--⑥-|
88
②口口① |--①-|
①口③② |--②-|
④③口④ |③---|
口口口口 |④---|
89
口①①口 |①---|
口口口口 |--②-|
口口口口 |----|
口②口② |----|
90
口口⑥⑥ |①---|
③口①口 |②---|
④口口口 |③-④-|
⑤口②口 |⑤-⑥-|
91
口口口⑥ |--①-|
口⑥口⑤ |②-③-|
口②①口 |④-⑤-|
口④③口 |--⑥-|
92
④③③④ |--①-|
①口②口 |--②-|
口②口口 |③---|
口口口① |--④-|
93
口⑥⑥口 |--①-|
口口口口 |②-③-|
④口①⑤ |④-⑤-|
口②③口 |--⑥-|
94
③口口③ |--①-|
口②②口 |--②-|
口①①口 |----|
口口口口 |--③-|
95
口口⑦口 |--①-|
④⑦口口 |②-③-|
口②①③ |④-⑤-|
口⑥⑤口 |⑥-⑦-|
96
①口口① |--①-|
口口口口 |--②-|
②③③② |③---|
口④④口 |④---|
97
口①口口 |①---|
①①①口 |----|
口口口口 |----|
口口口口 |----|
98
④③②① |①---②-|
④③②① |--③---|
④③②① |④---|
④③②① |----|

accuracy: 99.5%
最終更新:2023年01月17日 11:29