アットウィキロゴ
熱情のサパデアード
日向美ビタースイーツ♪

BASIC

Level: 3
BPM: 136
Notes: 197

1
口口口口 |----|
口口口口 |----|
口口口口 |----|
口口口口 |----|
2
口口口口 |①---|
口①①口 |---②|
口②②口 |----|
口口口口 |----|
3
口口口口 |①---|
①口口① |---②|
②口口② |----|
口口口口 |----|
4
口口口口 |①---|
②口口② |---②|
口口口口 |----|
口①①口 |----|
5
口口口口 |①---|
口口口口 |----|
口口口口 |----|
①口口① |----|
6
口口口口 |①---|
①口口口 |----|
口②口口 |②---|
口口口口 |----|
7
口口口口 |①---|
口口口① |----|
口口②口 |②---|
口口口口 |----|
8
口口口口 |①---|
口口口口 |---②|
口②②口 |----|
口①口口 |----|
9
②口口① |①---|
口口口口 |----|
口口口口 |②---|
口口口口 |----|
10
口口口口 |①---|
口①口口 |----|
口口②口 |②---|
口口口口 |----|
11
口口②口 |①---|
口口口① |----|
口口口口 |②---|
口口口口 |----|
12
口口口口 |①---|
口口①口 |----|
口②口口 |②---|
口口口口 |----|
13
口②口口 |①---|
①口口口 |----|
口口口口 |②---|
口口口口 |----|
14
口口口口 |①---|
口①②口 |----|
口口口口 |②---|
口口口口 |----|
15
①口口① |①---|
②口口② |----|
口口口口 |②---|
口口口口 |----|
16
口口口口 |①---|
口口口口 |----|
口②①口 |②---|
口口口口 |----|
17
口口口口 |①---|
①口口① |----|
②口口② |②---|
口口口口 |----|
18
口①口口 |①---|
口①口口 |----|
口口口口 |----|
口口口口
19
口口口口 |①---|
口口口口 |----|
口①①口 |----|
口口口口
20
口口①口 |①---|
口口①口 |----|
口口口口 |----|
口口口口
21
口口口口 |①---|
口口口口 |----|
口①①口 |----|
口口口口
22
①口口口 |①---|
①口口口 |----|
口口口口 |----|
口口口口
23
口口口口 |①---|
口口口口 |----|
口①①口 |----|
口口口口
24
口口口① |①---|
口口口① |----|
口口口口 |----|
口口口口
25
口口口口 |①---|
口口口口 |----|
口①①口 |----|
口口口口
26
口口口口 |①---|
②②①① |----|
口口口口 |②---|
口口口口 |----|
27
口口口口 |①---|
口口口口 |②---|
①②③口 |③---|
口口口口 |----|
28
口口口口 |①---|
口口口口 |----|
口口口口 |②---|
②②①① |----|
29
②口口② |①---|
口①①口 |----|
口口口口 |②---|
口口口口 |----|
30
口口口口 |①---|
①①②② |----|
口口口口 |②---|
口口口口 |----|
31
口③②① |①---|
口口口口 |②---|
口口口口 |③---|
口口口口 |----|
32
口口口口 |①---|
口①①口 |----|
口②②口 |②---|
口口口口 |----|
33
口口口口 |①---|
口口口口 |----|
口口口口 |②---|
②①①② |----|
34
口口口口 |①---|
口口口口 |----|
①口口口 |②---|
口②口口 |----|
35
口口口口 |①---|
口口口口 |----|
口口口② |②---|
口口①口 |----|
36
口口口口 |①---|
口①①口 |----|
口②②口 |②---|
口口口口 |----|
37
口口口口 |①---|
①①①① |----|
口口口口 |----|
口口口口
38
口口口口 |①---|
口①口口 |----|
口口①口 |----|
口口口口
39
口口口口 |①---|
口口①口 |----|
口①口口 |----|
口口口口
40
①口口口 |①---|
口口口口 |----|
口口口口 |----|
口口口口
41
口口口口 |①---|
口①口口 |----|
口口口口 |----|
口口口口
42
口口口口 |①---|
口口口口 |----|
口口①口 |----|
口口口口
43
口口口口 |①---|
口口口口 |----|
口口口口 |----|
口口口①
44
口口口口 |①---|
口口口口 |--②-|
口口②① |----|
口口口口
45
口口口口 |①---|
口口口口 |--②-|
②①口口 |----|
口口口口
46
口口口口 |①---|
①②口口 |--②-|
口口口口 |----|
口口口口
47
口口口口 |①---|
口口①② |--②-|
口口口口 |----|
口口口口
48
口口口口 |①---|
口口口口 |----|
口①①口 |----|
口口口口
49
口口口口 |----|
口口口口 |----|
口口口口 |----|
口口口口
50
口口口口 |-①--|
口①②口 |----|
口口口口 |-②--|
口口口口
51
口口口口 |----|
口口口口 |-①--|
口口①口 |----|
口口口口
52
口口②口 |①---|
口①①口 |----|
口口口口 |②---|
口口口口 |----|
53
口口口口 |①---|
口①口口 |----|
口口②口 |②---|
口口口口 |----|
54
口口口口 |①---|
①①②② |----|
口口口口 |②---|
口口口口 |----|
55
口口口口 |①---|
口口口口 |②---|
口③②① |③---|
口口口口 |----|
56
口口口口 |①---|
口口口口 |----|
口口口口 |②---|
①①②② |----|
57
②口口② |①---|
口①①口 |----|
口口口口 |②---|
口口口口 |----|
58
口口口口 |①---|
②②①① |----|
口口口口 |②---|
口口口口 |----|
59
①②③口 |①---|
口口口口 |②---|
口口口口 |③---|
口口口口 |----|
60
口口口口 |①---|
口①①口 |----|
口②②口 |②---|
口口口口 |----|
61
口口口口 |①---|
口口口口 |----|
口口口口 |②---|
②①①② |----|
62
口口口口 |①---|
口口口口 |----|
口口口① |②---|
口口②口 |----|
63
口口口口 |①---|
口口口口 |----|
②口口口 |②---|
口①口口 |----|
64
口口口口 |①---|
口①①口 |----|
口②②口 |②---|
口口口口 |----|
65
口①②口 |①---|
口②①口 |----|
口口口口 |②---|
口口口口 |----|
66
口口口口 |①---|
口口口口 |----|
①口口口 |②---|
口②口口 |----|
67
口口口口 |①---|
口口口口 |----|
口口口② |②---|
口口①口 |----|
68
口口口口 |①---|
口①①口 |----|
口②②口 |②---|
口口口口 |----|
69
口口口口 |①---|
①①①① |----|
口口口口 |----|
口口口口
70
口口口口 |①---|
口口①口 |----|
口①口口 |----|
口口口口
71
口口口口 |①---|
口①口口 |----|
口口①口 |----|
口口口口
72
口口口口 |①---|
口口①口 |----|
口①口口 |----|
口口口口
73
口口口口 |①---|
①口口口 |----|
口口口① |----|
口口口口
74
口口口口 |①---|
口口口① |----|
①口口口 |----|
口口口口
75
口口口口 |①---|
①口口口 |----|
口口口① |----|
口口口口
76
口口口口 |①---|
口①①口 |----|
口①①口 |----|
口口口口

accuracy: 99.5%
最終更新:2023年01月17日 11:13