アットウィキロゴ
熱情のサパデアード
日向美ビタースイーツ♪

ADVANCED

Level: 6
BPM: 136
Notes: 403

1
口口口口 |----|
口口口口 |----|
口口口口 |----|
口口口口
2
口口口口 |①---|
①口口① |---②|
口口口口 |----|
口②②口 |----|
3
口口口口 |①---|
口①①口 |---②|
口口口口 |----|
②口口② |----|
4
②口口② |①---|
口口口口 |---②|
口①①口 |----|
口口口口 |----|
5
口口口口 |①---|
口口口口 |----|
①①②② |②---|
口口口口 |----|
6
①口口口 |①---|
口口口口 |---②|
口②口② |----|
口口口口 |----|
7
口口口① |①---|
口口口口 |---②|
②口②口 |----|
口口口口 |----|
8
口口口口 |①---|
②口口② |---②|
口口口口
口①①口

口口口口
口口口口
口口口口 |----|
口口③口 |③---|
9
口②①口 |①---|
②口口口 |----|
口口口口 |②---|
口口口口 |----|
10
⑤口口② |①--②|
口口④口 |--③-|
⑥①①③ |④--⑤|
口口口口 |--⑥-|
11
口口口口 |①--②|
⑤①口② |--③-|
口口④口 |④--⑤|
⑥口口③ |--⑥-|
12
⑤口口② |①--②|
口口④口 |--③-|
⑥①口③ |④--⑤|
口口口口 |--⑥-|
13
口口口口 |①--②|
⑤①口② |--③-|
口口④口 |④--⑤|
⑥口口③ |--⑥-|
14
⑤口②② |①--②|
⑤口④口 |--③-|
⑥①口③ |④--⑤|
口口口口 |--⑥-|
15
口①①口 |①--②|
口口口口 |--③-|
④②②③ |④---|
④口口③ |----|
16
④口口① |①--②|
口⑤③口 |--③-|
口口⑥② |④-⑤-|
口口口⑦ |⑥-⑦-|
17
②口口② |①---|
口口口口 |----|
口口口口 |②---|
口①①口 |----|
18
口③口口 |①---|
口口④口 |②---|
①口口② |③-④-|
①口口口
19
口口口口 |①---|
口③口口 |②---|
①口④② |③-④-|
①口口口
20
口③口口 |①---|
口口④口 |②---|
①口口② |③-④-|
①口口口
21
②口口② |①---|
③口口③ |②---|
①口口口 |③---|
①口口口
22
口③口口 |①---|
口口④口 |②---|
口①口② |③-④-|
①口口口
23
口口口口 |①---|
口③口口 |②---|
①口④② |③-④-|
口①口口
24
口③口口 |①---|
口口④口 |②---|
口①口② |③-④-|
①口口口
25
口口②口 |①---|
口口口② |②---|
①口口口 |----|
口①口口
26
①④④① |①--②|
口口口口 |--③-|
⑥②⑤③ |④--⑤|
口口口口 |--⑥-|
27
口口口口 |①--②|
口①①口 |--③-|
口②口③ |④---|
口④④口 |----|
28
口口口口 |①--②|
②⑥③⑤ |--③-|
口口口口 |④--⑤|
①④④① |--⑥-|
29
②①①③ |①---|
④口口⑤ |--②-|
口⑥口口 |③-④-|
口口口口 |⑤-⑥-|
30
口口口口 |①---|
口口①口 |----|
口口口口 |②---|
②②③③ |③---|
31
③口口③ |①---|
口②②口 |②---|
①口口① |③---|
口口口口 |----|
32
口口口口 |①--②|
⑤①④② |--③-|
口④①口 |④--⑤|
⑥口口③ |--⑥-|
33
⑤口口② |①--②|
口①④口 |--③-|
⑥④①③ |④--⑤|
口口口口 |--⑥-|
34
口③①口 |①---|
③口口① |②---|
口口口口 |③---|
④②②④ |④---|
35
③口口① |①---|
口③①口 |②---|
口口口口 |③---|
④②②④ |④---|
36
口④①口 |①---|
④口口① |②---|
③口口② |③---|
口③②口 |④---|
37
口口口口 |①---|
口①①口 |----|
口①①口 |----|
口口口口
38
口口口口 |①---|
①口口口 |----|
口口口① |----|
口口口口
39
口口口口 |①---|
口口口① |----|
①口口口 |----|
口口口口
40
口①口口 |①---|
口口口口 |--②-|
口②②口 |----|
口口①口
41
口口①口 |①---|
口口口口 |--②-|
口②②口 |----|
口①口口
42
口口口口 |①---|
①口口口 |--②-|
口②②① |----|
口口口口
43
口口口口 |①---|
口口口① |--②-|
①②②口 |----|
口口口口
44
口口口口 |①-②-|
①②③口 |③-④-|
④⑤⑥口 |⑤-⑥-|
口口口口
45
口口口口 |①-②-|
口口口口 |--③-|
③口口③ |----|
①②口口
46
口②④口 |①-②-|
口①③口 |--③-|
口口口口 |④---|
口口口口
47
②口口② |①---|
口口口口 |--②-|
口①①口 |----|
口口口口
48
口口口口 |①--②|
①口口② |----|
口口口口 |----|
口口口口
49
口口口口 |----|
口口口口 |----|
口口口口 |----|
口口口口
50
口①口口 |-①--|
口口②口 |-②--|
口③口口 |-③--|
口口口口
51
口口口口 |-①--|
口口口③ |-②--|
②口口口 |-③--|
口口①口
52
②①①② |①---|
口口口口 |②---|
口口口口 |③---|
③口③口 |----|
53
②①②① |①---|
口口口口 |----|
口口口口 |②---|
口口口口 |----|
54
口④④口 |①--②|
口口口口 |--③-|
③⑤②⑥ |④--⑤|
口①口① |--⑥-|
55
口口口口 |①--②|
口①①口 |--③-|
③口②口 |④---|
口④④口 |----|
56
口口口口 |①--②|
⑤③⑥② |--③-|
口口口口 |④--⑤|
①④④① |--⑥-|
57
③①①② |①---|
⑤口口④ |--②-|
口口⑥口 |③-④-|
口口口口 |⑤-⑥-|
58
口口口口 |①---|
口①口口 |----|
口口口口 |②---|
③③②② |③---|
59
③口口③ |①---|
口②②口 |②---|
①口口① |③---|
口口口口 |----|
60
口口口口 |①--②|
②④①⑤ |--③-|
口①④口 |④--⑤|
③口口⑥ |--⑥-|
61
②口口⑤ |①--②|
口④①口 |--③-|
③①④⑥ |④--⑤|
口口口口 |--⑥-|
62
口①③口 |①---|
①口口③ |②---|
口口口口 |③---|
④②②④ |④---|
63
①口口③ |①---|
口①③口 |②---|
口口口口 |③---|
④②②④ |④---|
64
口①④口 |①---|
①口口④ |②---|
②口口③ |③---|
口②③口 |④---|
65
①口口① |①---|
口②②口 |②---|
口③③口 |③---|
④口口④ |④---|
66
口①③口 |①---|
①口口③ |②---|
口口口口 |③---|
④②②④ |④---|
67
①口口③ |①---|
口①③口 |②---|
口口口口 |③---|
④②②④ |④---|
68
口①④口 |①---|
①口口④ |②---|
②口口③ |③---|
口②③口 |④---|
69
口口口口 |①---|
口①①口 |----|
口①①口 |----|
口口口口
70
口口口口 |①---|
①口口口 |----|
口口口① |----|
口口口口
71
口口口口 |①---|
口口口① |----|
①口口口 |----|
口口口口
72
口口口口 |①---|
①口口口 |----|
口口口① |----|
口口口口
73
口②口口 |①---|
口口③① |--②-|
①④口口 |③-④-|
口口口口
74
口口②口 |①---|
①③口口 |--②-|
口口④① |③-④-|
口口口口
75
口②口口 |①---|
口口③① |--②-|
①④口口 |③-④-|
口口口口
76
①口口① |①---|
①口口① |----|
口口口口 |----|
口口口口

accuracy: 99.5%
最終更新:2023年01月17日 11:13