アットウィキロゴ
熱情のサパデアード
日向美ビタースイーツ♪

EXTREME

Level: 8
BPM: 136
Notes: 709

1
口口口口 |----|
口口口口 |----|
口口口口 |----|
口口口口 |----|
2
口⑥口口 |①②③④|
①⑤口口 |⑤⑥-⑦|
②口③⑦
口⑦④口

口口口口
⑧口⑨口
⑩口口口 |--⑧-|
口口口口 |⑨-⑩-|
3
⑥口①口 |①--②|
口口⑤④ |③④⑤⑥|
口⑥①口
②③口口

口口口口
口⑦口口
⑧口⑧⑦ |----|
口口口口 |--⑦-⑧-|
4
⑥⑥①⑤ |①--②|
①口口④ |③④⑤⑥|
⑧③口⑦ |--⑦-|
口②口⑨ |⑧-⑨-|
5
口③②⑥ |①-②③|
口⑧⑨口 |--④-|
⑦④口口 |⑤--⑥|
①口口⑤ |-⑦⑧⑨|
6
口口①口 |①-②③|
④⑦⑧口 |-④-⑤|
⑥②口口 |----|
口口③⑤ |-⑥⑦⑧|
7
口口口口 |①-②③|
④口口① |-④-⑤|
口②口口
口口③⑤

口口口口
口口口口
口⑥⑦口 |----|
口口口口 |--⑥⑦|
8
④口口③ |①--②|
②口①口 |-③-④|
④口口口 |----|
口口⑤口 |⑤---|
9
②口①口 |①---|
④②口③ |----|
口口口口 |②---|
口口口口 |--③④|
10
⑤①①② |①--②|
口口口口 |--③-|
⑤④④② |④--⑤|
⑥③③⑥ |--⑥-|
11
⑤①口② |①--②|
⑦口①⑥ |--③-|
口口④② |④--⑤|
口③口口 |--⑥⑦|
12
⑥①①② |①--②|
口口口⑤ |--③-|
⑥④④② |④-⑤⑥|
⑦③③⑦ |--⑦-|
13
⑤①口② |①--②|
⑦口①⑥ |--③-|
口口④口 |④--⑤|
口③口口 |--⑥⑦|
14
⑤①①② |①--②|
口口口口 |--③-|
⑤③④② |④--⑤|
⑥④③⑥ |--⑥-|
15
口①口② |①--②|
①②①口 |--③-|
③口③②
口③口口

⑥口⑤口
口口⑦口
口④口口 |④-⑤-|
④口④口 |⑥-⑦-|
16
⑤口④口 |①--②|
①⑤口④ |--③-|
⑦③⑥② |④-⑤-|
③⑦②⑥ |⑥-⑦-|
17
口③③② |①---②-|
②④④口 |--③-④-|
口⑤⑤① |⑤---|
①口①口 |----|
18
①口⑤口 |①-②-|
④口口口 |③-④-|
②口⑥③ |⑤-⑥-|
口口①口
19
口口口① |①-②③|
口②③④ |④-⑤-|
⑥口⑦口 |⑥-⑦-|
口①口⑤
20
①口⑥口 |①-②③|
④③②口 |④-⑤-|
口⑦口⑤ |⑥-⑦-|
口口①口
21
口口④① |①-②-|
口②口口 |--③-|
口⑤口③ |④-⑤-|
口①口口
22
①口⑤口 |①-②-|
④口口口 |③-④-|
②口⑥③ |⑤-⑥-|
口口①口
23
口口口① |①-②③|
口②③④ |④-⑤-|
⑥口⑦口 |⑥-⑦-|
口①口⑤
24
①口⑥口 |①-②③|
④③②口 |④-⑤-|
口⑦口⑤ |⑥-⑦-|
口口①口
25
口④口① |①---|
口口口口 |②-③-|
③口⑤口 |④-⑤-|
②①口②
26
口口口① |①--②|
③①③口 |--③-|
口口口①
口②口口

④口口口
口⑥口⑥
④口口口 |④--⑤|
⑤口⑤口 |--⑥-|
27
口③③① |①--②|
④口⑥⑥ |--③-|
口口口① |④--⑤|
④②⑤② |--⑥-|
28
④①⑥① |①--②|
③③口⑥ |--③-|
④口口口 |④--⑤|
⑤②⑤② |--⑥-|
29
⑥①口⑤ |①--②|
①⑦④口 |--③-|
口口口③ |④-⑤-|
口②口口 |⑥-⑦-|
30
⑩口口⑨ |①-②③|
⑦口口④ |-④-⑤|
①⑧口② |⑥-⑦⑧|
⑤⑤③⑥ |-⑨-⑩|
31
口④口口 |①-②③|
④①①口 |--④-|
口口口④
②③口口

口口⑤口
口口⑥⑤
⑤口口口 |⑤---|
⑥口口口 |--⑥-|
32
口口②口 |①---|
口①口口 |--②-|
②口口口
口口口①

⑤③口口
口口口口
口口口③ |③--④|
口④④⑤ |--⑤-|
33
口口口① |①--②|
②口口③ |--③-|
口口口口
①口口口

口④④口
口口口口
⑥口口口 |④--⑤|
⑤⑦口⑤ |--⑥⑦|
34
②口④口 |①-②③|
⑤③口口 |④-⑤-|
口口①口
口口口口

口口⑩⑥
口口口⑩
口⑦⑧口 |⑥-⑦⑧|
⑨口口口 |-⑨-⑩|
35
④口⑦口 |①--②|
①口⑤口 |--③-|
⑧③⑥口 |④-⑤⑥|
口⑧口② |-⑦-⑧|
36
口③⑥口 |①--②|
①④口⑥ |--③④|
⑥⑤口口 |⑤---|
口⑥口② |⑥---|
37
口①口口 |①---|
①口口口 |----|
口口口① |----|
口口①口
38
⑦口⑦口 |①-②③|
⑥①⑥② |④-⑤-|
⑤口⑤③ |⑥-⑦-|
口口口④
39
⑦口⑦口 |①-②③|
⑥①⑥② |④-⑤-|
⑤口⑤③ |⑥-⑦-|
口口口④
40
④口口① |①---|
口口③① |--②-|
②①口口 |③-④-|
口口口口
41
③口口口 |①---|
口口口口 |--②-|
口①口① |--③-|
口①口②
42
口口口③ |①--②|
④①①口 |--③-|
口口口① |-④--|
②口口口
43
口口口口 |---①|
口口口口 |----|
口口口口 |----|
口口①①
44
口口口口 |①②③④|
⑨⑩⑫⑪ |⑤⑥⑦⑧|
⑤⑥⑧⑦ |⑨⑩⑪⑫|
①②④③
45
①口口口 |①-②-|
口口口口 |--③④|
②口⑧⑦ |⑤⑥⑦⑧|
⑤⑥④③
46
②⑤口口 |①-②-|
口口口⑥ |-③④-|
①④口口 |⑤-⑥-|
口口③口
47
口口口口 |①②③④|
①②⑦口 |⑤⑥⑦-|
口口④③ |----|
⑤⑥口口
48
①口口② |①--②|
口口口② |----|
②口口口 |----|
②口口①
49
口口口口 |----|
口口口口 |----|
口口口口 |----|
口口口口
50
①②口口 |-①②③|
③口⑤④ |-④⑤⑥|
⑦⑧口⑥ |-⑦⑧⑨|
⑨口口口
51
口④③口 |-①②③|
口⑥⑤⑨ |④⑤⑥⑦|
口⑧⑦⑩ |⑧⑨⑩⑪--|
口②①⑪
52
①②②① |①---|
口②②口 |②---|
③口③口 |③---|
口③口口 |----|
53
口①口① |①---|
口口①口 |----|
口②口② |②---|
口口②口 |----|
54
①④①④ |①--②|
⑥③⑥③ |--③-|
①口①④ |④--⑤|
口⑤②⑤ |--⑥-|
55
①③③口 |①--②|
⑥⑥口④ |--③-|
①④①口 |④--⑤|
②⑤②④ |--⑥-|
56
①⑥①④ |①--②|
⑥口③③ |--③-|
①④⑥④ |④--⑤|
②⑤②⑤ |--⑥-|
57
①口①口 |①--②|
口口口① |--③-|
③③口口
口口②口

⑤⑤⑥⑥
④④⑦⑦
口口口口 |④-⑤-|
口口口口 |⑥-⑦-|
58
口口口口 |①-②③|
④口口口 |-④-⑤|
②口①①
口③⑤⑤

⑨口口⑩
口口口⑦
口口⑧口 |⑥-⑦⑧|
⑥口口口 |-⑨-⑩|
59
口④口口 |①-②③|
口①①④ |--④-|
④口口口
口口③②

口口⑤口
⑤⑥口口
口口口⑤ |⑤---|
口口⑥⑥ |--⑥-|
60
口②口口 |①---|
口口①口 |--②-|
口口②②
①①口口

口口③⑤
口口⑤口
③③口口 |③--④|
⑤④④口 |--⑤-|
61
①口口口 |①--②|
③①口② |--③-|
口口口口
口口口①

口④④口
口口口口
口口口⑥ |④--⑤|
⑤口⑦⑤ |--⑥⑦|
62
口④口② |①-②③|
口口③⑤ |④-⑤-|
口①口口
口口口口

⑥⑩口口
⑩口口口
口⑧⑦口 |⑥-⑦⑧|
口口口⑨ |-⑨-⑩|
63
口口⑦④ |①--②|
口⑤口① |--③-|
⑧⑥③口 |④-⑤⑥|
②⑧口口 |-⑦-⑧|
64
口③口⑥ |①--②|
口④口① |--③④|
⑥⑤⑥口 |⑤---|
②口口口 |⑥---|
65
①口①口 |①---|
①口口口 |②---|
口口口②
口②口②

口口口③
口③口③
④口④⑤ |③---|
④口⑥口 |④-⑤⑥|
66
口④口② |①-②③|
口口③⑤ |④-⑤-|
口①口口
口口口口

⑥⑩口口
⑩口口口
口⑧⑦口 |⑥-⑦⑧|
口口口⑨ |-⑨-⑩|
67
口⑦口④ |①--②|
口⑤口① |--③-|
口⑥③⑧ |④-⑤⑥|
②口⑧口 |-⑦-⑧|
68
⑥口③口 |①--②|
口口④① |--③④|
口口⑤口 |⑤---|
②口口⑥ |⑥---|
69
口①①口 |①---|
口①口① |----|
①①口口 |----|
①①口口
70
⑦口⑦口 |①-②③|
⑥①⑥② |④-⑤-|
⑤口⑤③ |⑥-⑦-|
口口口④
71
⑦口⑦口 |①-②③|
⑥①⑥② |④-⑤-|
⑤①⑤③ |⑥-⑦-|
口口口④
72
⑦口⑦口 |①-②③|
⑥①⑥② |④-⑤-|
⑤口⑤③ |⑥-⑦-|
口①口④
73
⑦①⑦口 |①-②③|
⑥口⑥② |④-⑤-|
⑤口⑤③ |⑥-⑦-|
口①口④
74
⑦①⑦口 |①-②③|
⑥①⑥② |④-⑤-|
⑤口⑤③ |⑥-⑦-|
口①口④
75
口①口口 |①-②③|
口①口② |④-⑤-|
口①口③
口①口④

⑦口⑦口
⑥⑦⑥口
⑤口⑤口
口口口口 |⑥-⑦-|
76
口口口① |①---|
口口口① |----|
口口口口 |----|
口①①口

accuracy: 99.5%
最終更新:2023年01月17日 11:14