アットウィキロゴ
ベビーステップ
ここなつ

BASIC

Level: 4
BPM: 200
Notes: 224

1
口口口口 |----|
口口口口 |----|
口口口口 |----|
口口口口 |----|
2
口口口口 |①---|
口②②口 |----|
①口口口 |----|
口口口口 |--②-|
3
口口口口 |----|
口口口口 |----|
口口口口 |----|
口口口口 |----|
4
口口口口 |①---|
口②②口 |----|
口口口① |----|
口口口口 |--②-|
5
口口口口 |----|
口口口口 |----|
口口口口 |----|
口口口口 |----|
6
口①口口 |①---|
口口②口 |----|
口口口口 |②---|
口口口口 |----|
7
口口口口 |①---|
口口口口 |----|
口①口口 |②---|
口口②口 |----|
8
口口口口 |--①-|
口②口口 |----|
①口口③ |②---|
口口口口 |--③-|
9
②口口② |----|
口口①口 |①---|
口口口口 |--②-|
口口口口 |----|
10
口口口口 |----|
①口口口 |①---|
口②口口 |----|
口口口口 |②---|
11
口口口口 |----|
口口口② |①---|
口口①口 |----|
口口口口 |②---|
12
口口口口 |----|
口②①口 |①---|
口口口口 |----|
口口口口 |②---|
13
口口口口 |----|
①口口口 |①---|
②口口口 |----|
口口口口 |②---|
14
口口口口 |----|
口口口口 |①---|
口口口口 |----|
口①②口 |②---|
15
口口口口 |----|
口口口口 |①---|
口②①口 |----|
口口口口 |②---|
16
口口口口 |----|
口①②口 |①---|
口口口口 |----|
口口口口 |②---|
17
口口口口 |----|
口口口口 |①---|
②①①② |----|
口口口口 |②---|
18
口口口口 |----|
口口口① |①---|
口口②口 |----|
口口口口 |②---|
19
口口口口 |----|
②口口口 |①---|
口①口口 |----|
口口口口 |②---|
20
口口口口 |----|
口①②口 |①---|
口口口口 |----|
口口口口 |②---|
21
口口口② |----|
口口口① |①---|
口口口口 |----|
口口口口 |②---|
22
②口口口 |----|
口①①口 |①---|
口口口口 |----|
口口口口 |②---|
23
口口口口 |----|
口①口口 |①---|
口口②口 |----|
口口口口 |②---|
24
口口口口 |----|
②口口② |①---|
口口口口 |----|
口口口① |②---|
25
口口口口 |----|
口口口口 |----|
口口口口 |----|
口口口口 |----|
26
①口口① |①---|
口口口口 |----|
口口口口 |----|
口口口口 |----|
27
口口口口 |①---|
口①①口 |----|
口口口口 |----|
口口口口 |----|
28
口口口口 |①---|
口口口口 |----|
①口口① |----|
口口口口 |----|
29
口口口口 |①---|
①②口口 |----|
口口口口 |②---|
口口口口 |----|
30
①口口① |①---|
口口口口 |----|
口口口口 |----|
口口口口 |----|
31
口口口口 |①---|
口①①口 |----|
口口口口 |----|
口口口口 |----|
32
口口口口 |①---|
口口口口 |----|
①口口① |----|
口口口口 |----|
33
口口口口 |①---|
口口②① |----|
口口口口 |②---|
口口口口 |----|
34
①口口① |①---|
口口口口 |----|
口口口口 |----|
口口口口 |----|
35
口口口口 |①---|
口①①口 |----|
口口口口 |----|
口口口口 |----|
36
口口口口 |①---|
口口口口 |----|
①口口① |----|
口口口口 |----|
37
口口口口 |①---|
口①②口 |----|
口口口口 |②---|
口口口口 |----|
38
①口口① |①---|
口口口口 |----|
口口口口 |----|
口口口口 |----|
39
②口口② |①---|
口①①口 |----|
口口口口 |----|
口口口口 |--②-|
40
口口口口 |----|
口口口口 |----|
口口口口 |----|
口口口口 |----|
41
口口口口 |----|
口口口口 |----|
口口口口 |----|
口口口口 |----|
42
口口口口 |①---|
①口口① |----|
口口口口 |----|
口口口口 |----|
43
口口口口 |--①-|
口①①口 |----|
口①①口 |----|
口口口口 |----|
44
口口口口 |----|
①①口口 |①---|
口口②② |----|
口口口口 |②---|
45
口口口口 |----|
口口②② |①---|
①①口口 |----|
口口口口 |②---|
46
口①口口 |----|
口口②口 |①---|
口口口口 |----|
口口口口 |②---|
47
口口口口 |----|
口口口口 |①---|
口①口口 |----|
口口②口 |②---|
48
口口口口 |----|
口口②② |①---|
①①口口 |----|
口口口口 |②---|
49
口口口口 |----|
①①口口 |①---|
口口②② |----|
口口口口 |②---|
50
口口口口 |----|
口口口口 |①---|
口口口口 |----|
②①①② |②---|
51
口口口口 |----|
口口口口 |①---|
②①①② |----|
口口口口 |②---|
52
口口口口 |----|
口口①① |①---|
②②口口 |----|
口口口口 |②---|
53
口口口口 |----|
②②口口 |①---|
口口①① |----|
口口口口 |②---|
54
口口①口 |----|
口②口口 |①---|
口口口口 |----|
口口口口 |②---|
55
口口口口 |----|
口口口口 |①---|
口口①口 |----|
口②口口 |②---|
56
口口口口 |----|
口②口口 |①---|
①口口口 |----|
口口口口 |②---|
57
口口口口 |----|
口口口② |①---|
口口①口 |----|
口口口口 |②---|
58
口①①口 |①---|
②口口口 |----|
口口口口 |②---|
口口口口 |----|
59
口口口口 |①---|
口口口① |----|
口②②口 |②---|
口口口口 |----|
60
①口口① |①---|
口口口口 |----|
口口口口 |----|
口口口口 |----|
61
口口口口 |----|
口口口口 |----|
口口口口 |----|
口口口口 |----|
62
口口口口 |①---|
①口口口 |----|
①口口口 |----|
口口口口 |----|
63
口口口口 |----|
口口口口 |----|
口口口口 |----|
口口口口 |----|
64
口口口口 |①---|
口口口① |----|
口口口① |----|
口口口口 |----|
65
口口口口 |----|
口口口口 |----|
口口口口 |----|
口口口口 |----|
66
口口口口 |①---|
②口口② |----|
口口口口 |----|
口①①口 |--②-|
67
口口口口 |----|
口口口口 |----|
口口口口 |----|
口口口口 |----|
68
口口口口 |----|
②口口口 |①---|
①口口口 |----|
口口口口 |②---|
69
口口口口 |----|
口①口口 |①---|
口②口口 |----|
口口口口 |②---|
70
口口口口 |----|
口口②口 |①---|
口口①口 |----|
口口口口 |②---|
71
口口口口 |----|
口口口① |①---|
口口口② |----|
口口口口 |②---|
72
口口口口 |----|
口口口口 |①---|
口口口口 |----|
口②①口 |②---|
73
口口口口 |----|
口口口口 |①---|
口①②口 |----|
口口口口 |②---|
74
口口②口 |----|
口口口① |①---|
口口口口 |----|
口口口口 |②---|
75
口①口口 |----|
②口口口 |①---|
口口口口 |----|
口口口口 |②---|
76
口口口口 |①---|
口口口口 |----|
口①①口 |----|
口口口口 |----|
77
口口口口 |----|
口口口口 |----|
口口口口 |----|
口口口口 |----|
78
口口口口 |①---|
口口口口 |----|
口口口口 |----|
口①①口 |----|
79
口口口口 |----|
口口口口 |----|
口口口口 |----|
口口口口 |----|
80
口口口口 |①---|
口口口口 |----|
口①①口 |----|
口口口口 |----|
81
口口口口 |----|
口口口口 |----|
口口口口 |----|
口口口口 |----|
82
口口口口 |①---|
口口口口 |----|
口口口口 |----|
口①①口 |----|
83
口口口口 |----|
口①①口 |--①-|
口①①口 |----|
口口口口 |----|
84
口口口口 |----|
口口①① |①---|
②②口口 |----|
口口口口 |②---|
85
口口口口 |----|
②②口口 |①---|
口口①① |----|
口口口口 |②---|
86
口口①口 |----|
口②口口 |①---|
口口口口 |----|
口口口口 |②---|
87
口口口口 |----|
口口口口 |①---|
口口①口 |----|
口②口口 |②---|
88
口口口口 |----|
口②口口 |①---|
①口口口 |----|
口口口口 |②---|
89
口口口口 |----|
口口①口 |①---|
口口口② |----|
口口口口 |②---|
90
口口口口 |①---|
口口口口 |----|
口口口口 |②---|
②①①② |----|
91
口口口口 |①---|
口口口口 |----|
②①①② |②---|
口口口口 |----|
92
②②②② |①---|
口①①口 |----|
口口口口 |②---|
口口口口 |----|
93
口口口口 |----|
口口口口 |----|
口口口口 |----|
口口口口 |----|
94
口口口口 |----|
口口口口 |----|
①口口① |①---|
口口口口 |----|
95
口口口口 |----|
口①①口 |--①-|
口口口口 |----|
口口口口 |----|
96
口①口口 |----|
口口口口 |----|
口口口口 |①---|
口口口口 |----|
97
口口口口 |①---|
口口①口 |----|
口②口口 |②---|
口口口口 |----|
98
口口口口 |①---|
口口口口 |----|
②口口口 |--②-|
口口①口 |----|
99
口口口口 |①---|
口①③口 |--②-|
口口口② |----|
口口口口 |③---|
100
口②口口 |--①-|
①口口③ |----|
口口口口 |②---|
口口口口 |--③-|
101
口口①口 |----|
口口②口 |①---|
口②口口 |--②-|
口口口口 |----|
102
口口口口 |----|
口①口口 |①---|
口口①口 |----|
口口口口 |----|

accuracy: 99.5%
最終更新:2024年09月08日 17:18