アットウィキロゴ
ベビーステップ
ここなつ

ADVANCED

Level: 6
BPM: 200
Notes: 404

1
口口口口 |----|
口口口口 |----|
口口口口 |----|
口口口口 |----|
2
口口④④ |①---|
口③口口 |②---|
口口口口 |--③-|
口①②口 |--④-|
3
口口口口 |----|
口口口口 |①---|
①口口② |②---|
口口口口 |----|
4
④④口口 |①---|
口口③口 |②---|
口口口口 |--③-|
口②①口 |--④-|
5
口口口口 |----|
口口口口 |①---|
②口口① |②---|
口口口口 |----|
6
口口①口 |①---|
口②口口 |----|
口口口口 |②---|
口口口口 |----|
7
口口口口 |①---|
口口口口 |----|
口口①口 |②---|
口②口口 |----|
8
口口口口 |--①-|
②口口② |----|
①①③③ |②---|
口口口口 |--③-|
9
②口口② |----|
口①①口 |①---|
口口口口 |--②-|
口口口口 |----|
10
口口口口 |----|
口②口① |①---|
口口口③ |②---|
口口口口 |③---|
11
口口口口 |①---|
口口口口 |②---|
口①④口 |③---|
口③口② |④---|
12
口口口口 |①---|
①口②口 |②---|
③口④口 |③---|
口口口口 |④---|
13
口口口口 |①---|
口口口口 |②---|
口③口④ |③---|
①口②口 |④---|
14
口口口口 |①---|
口①①口 |----|
口口口口 |②---|
口②②口 |----|
15
口口口口 |①---|
①口口① |----|
口口口口 |②---|
口②②口 |----|
16
口口口口 |①---|
口④④口 |②---|
①②③口 |③---|
口口口口 |--④-|
17
口口口口 |----|
①口口① |--①-|
口口口口 |----|
口口口口 |----|
18
口②口① |----|
口口③口 |①---|
口口口口 |②---|
口口口口 |③---|
19
口口口口 |①---|
①口口口 |②---|
口③口② |③---|
口口④口 |④---|
20
①口②口 |①---|
口③口④ |②---|
口口口口 |③---|
口口口口 |④---|
21
口口口口 |①---|
口口口口 |②---|
①口②口 |③---|
口③口④ |④---|
22
口口③口 |①---|
口②②③ |②---|
口①口口 |----|
口口口口 |③---|
23
口①口口 |----|
①口口口 |①---|
口②②口 |----|
口口口口 |②---|
24
①口口① |①---|
②口口② |--②-|
③口口③ |----|
口口口口 |③---|
25
口口口口 |--①-|
口口口口 |----|
口②③口 |②---|
①口口① |③---|
26
①①口口 |①---|
口口口口 |----|
口口口口 |②---|
口②口口 |----|
27
口口①① |①---|
口口口口 |----|
口口口口 |②---|
口口②口 |----|
28
口①①口 |①---|
口②②口 |----|
口口口口 |②---|
口口口口 |----|
29
口口口口 |①---|
口口口口 |----|
口①①口 |②---|
口②②口 |----|
30
①口口口 |①---|
①口口口 |----|
口口口口 |②---|
口②口口 |----|
31
口口口① |①---|
口口口① |----|
口口口口 |②---|
口口②口 |----|
32
口①①口 |①---|
口②②口 |----|
口口口口 |②---|
口口口口 |----|
33
口口口口 |①---|
口口口口 |----|
口①①口 |②---|
口②②口 |----|
34
口①口口 |①---|
①口口口 |----|
口口口口 |②---|
口②口口 |----|
35
口口①口 |①---|
口口口① |----|
口口口口 |②---|
口口②口 |----|
36
口①①口 |①---|
口②②口 |----|
口口口口 |②---|
口口口口 |----|
37
口口口口 |①---|
口口口口 |----|
口①①口 |②---|
口②②口 |----|
38
①口口口 |①---|
口①口口 |----|
口口口口 |②---|
口②口口 |----|
39
口口口① |①---|
③口①③ |----|
口口口口 |②---|
口口②口 |--③-|
40
口①②③ |----|
口口口口 |①---|
口口口口 |②---|
口口口口 |③---|
41
口口口口 |①---|
①②③④ |②---|
口口口口 |③---|
口口口口 |④---|
42
口口口口 |①---|
口口口口 |②---|
①②③④ |③---|
口口口口 |④---|
43
口①①口 |--①-|
口①①口 |----|
口口口口 |----|
口口口口 |----|
44
①口⑥② |①-②-|
口③④⑥ |③-④-|
口⑤口口 |--⑤-|
⑤口口口 |--⑥-|
45
口口口口 |--①-|
口①口口 |--②-|
②口①口 |----|
口②口口 |----|
46
口①①口 |①---|
口口口口 |----|
口②②口 |②---|
口口口口 |----|
47
口①①口 |①---|
口口口口 |----|
口口口口 |②---|
口②②口 |----|
48
①口⑥② |①-②-|
口③④⑥ |③-④-|
口⑤口口 |--⑤-|
⑤口口口 |--⑥-|
49
口口口口 |--①-|
口①口口 |--②-|
②口①口 |----|
口②口口 |----|
50
口①①口 |①---|
口口口口 |----|
口②②口 |②---|
口口口口 |----|
51
①口口① |①---|
口口口口 |----|
口口口口 |②---|
②口口② |----|
52
②⑥口① |①-②-|
⑥④③口 |③-④-|
口口⑤口 |--⑤-|
口口口⑤ |--⑥-|
53
口口口口 |--①-|
口口①口 |--②-|
口①口② |----|
口口②口 |----|
54
口①①口 |①---|
口口口口 |----|
口②②口 |②---|
口口口口 |----|
55
口①①口 |①---|
口口口口 |----|
口口口口 |②---|
口②②口 |----|
56
③③②② |①---|
口口口口 |----|
①口口① |--②-|
口口口口 |--③-|
57
口口口口 |----|
口口口口 |----|
口口口口 |----|
口口口口 |----|
58
口①①口 |①---|
口①①口 |----|
口②②口 |----|
口②②口 |②---|
59
口口口口 |----|
口③③口 |①---|
①口口② |②---|
口口口口 |③---|
60
①①①① |①---|
口口口口 |----|
口口口口 |----|
口口口口 |----|
61
①口口口 |----|
口口口口 |----|
口口口口 |①---|
口口口口 |----|
62
口口口② |①---|
口口口口 |----|
口口①① |②---|
口口口口 |----|
63
②口口口 |①---|
口口口口 |----|
①①口口 |②---|
口口口口 |----|
64
口口口② |①---|
口口口口 |----|
口口口口 |②---|
口口①① |----|
65
②口口口 |①---|
口口口口 |----|
口口口口 |②---|
①①口口 |----|
66
口口口② |①---|
口口①① |----|
口口口口 |②---|
口口口口 |----|
67
口②②口 |①---|
①①口口 |----|
口口口口 |②---|
口口口口 |----|
68
②口口① |----|
口口口口 |①---|
口口口口 |----|
①口口② |②---|
69
②口口① |----|
口口口口 |①---|
口口口口 |----|
①口口② |②---|
70
②口口① |----|
口口口口 |①---|
口口口口 |----|
①口口② |②---|
71
②口口① |----|
口口口口 |①---|
口口口口 |----|
①口口② |②---|
72
④口口② |①---|
口口口口 |②---|
口①口口 |③---|
②口③④ |④---|
73
④口③② |①---|
口①口口 |②---|
口口口口 |③---|
②口口④ |④---|
74
④口口② |①---|
口①①口 |②---|
口③③口 |③---|
②口口④ |④---|
75
口口口② |①---|
口①①口 |②---|
口④③口 |③---|
②口口口 |④---|
76
口口口口 |①---|
①①①① |----|
口口口口 |----|
口口口口 |----|
77
口口口口 |----|
口口口口 |----|
口口口口 |----|
口口口口 |----|
78
口口口口 |①---|
①口口② |----|
口①②口 |----|
口口口口 |--②-|
79
口口口口 |----|
口口口口 |----|
口口口口 |----|
口口口口 |----|
80
口口口口 |①---|
①口口① |----|
口口口口 |----|
②口口② |--②-|
81
口口口口 |----|
口口口口 |----|
口口口口 |----|
口口口口 |----|
82
口口口口 |①---|
口口口口 |----|
①口口② |----|
口①②口 |--②-|
83
口口口口 |----|
口①①口 |--①-|
口①①口 |----|
口口口口 |----|
84
①口⑥② |①-②-|
口③④⑥ |③-④-|
口⑤口口 |--⑤-|
⑤口口口 |--⑥-|
85
口口口口 |--①-|
口①口口 |--②-|
②口①口 |----|
口②口口 |----|
86
口①①口 |①---|
口口口口 |----|
口②②口 |②---|
口口口口 |----|
87
口①①口 |①---|
口口口口 |----|
口口口口 |②---|
口②②口 |----|
88
③③②② |①---|
口口口口 |----|
①口口① |--②-|
口口口口 |--③-|
89
口口口口 |----|
口口口口 |----|
口口口口 |----|
口口口口 |----|
90
口①①口 |①---|
口①①口 |----|
口②②口 |----|
口②②口 |②---|
91
口口口口 |----|
口③③口 |①---|
①口口② |②---|
口口口口 |③---|
92
口②②口 |①---|
②口口② |----|
口口口口 |②---|
口①①口 |----|
93
口口口口 |----|
口口口口 |----|
口口口口 |----|
口口口口 |----|
94
口口口口 |----|
口口口口 |----|
口口口口 |①---|
口②①口 |②---|
95
②②口口 |--①-|
口口①口 |--②-|
口口口③ |----|
口口口口 |③---|
96
口口②② |①---|
口口口口 |----|
①口口口 |②---|
口口口口 |----|
97
口口口口 |①---|
①①口口 |----|
口口②② |②---|
口口口口 |----|
98
口口口口 |①---|
口口口口 |----|
②②口口 |--②-|
①①口口 |----|
99
口口口口 |①---|
①③③① |--②-|
口口②② |----|
口口口口 |③---|
100
③口口口 |--①-|
①③口② |----|
口①②口 |②---|
口口口口 |--③-|
101
口口口① |----|
口口①口 |①---|
②口口③ |--②-|
②口口③ |③---|
102
①口口② |----|
①口口② |①-②-|
口口口口 |----|
口口口口 |----|

accuracy: 99.5%
最終更新:2024年09月08日 17:18