アットウィキロゴ
ベビーステップ
ここなつ

EXTREME

Level: 9.0
BPM: 200
Notes: 719

1
口口口口 |----|
口口口口 |----|
口口口口 |----|
口口口口 |----|
2
④口⑤口 |①---|
口①②口 |②---|
口②①⑤ |③-④-|
口口口③ |--⑤-|
3
口口口口 |--①-|
②口⑤① |②-③-|
④口③口 |④-⑤-|
⑥口口口 |⑥---|
4
口②①口 |①---|
口口口口 |②---|
口①②口
口口口口

④口⑤口
口口口口
口口口⑤ |③-④-|
口口口③ |--⑤-|
5
口口口口 |--①-|
②口口① |②-③-|
④口③口 |④-⑤-|
⑥口⑤口 |⑥---|
6
口口口① |①---|
②③①④ |②-③-|
⑤⑥④口 |④---|
口口口口 |⑤-⑥-|
7
口⑥⑤口 |①---|
口⑧⑦口 |②-③-|
口口④① |④---|
②③①④ |⑤⑥⑦⑧|
8
口口口② |--①-|
口口口口 |----|
③口②① |②---|
口③①口 |--③-|
9
①②②口 |----|
②口口② |①---|
口①口口 |--②-|
口口口口 |----|
10
口口口口 |①---|
⑤口口⑤ |②---|
口③④口 |③-④-|
口①①② |--⑤-|
11
口口口口 |----|
口口口⑤ |①-②-|
口④口① |③-④-|
③口②口 |--⑤-|
12
口⑤①口 |①---|
⑤③口口 |②-③-|
②口口④ |--④-|
口口④口 |--⑤-|
13
口口②口 |--①-|
口④口② |--②-|
口口③口 |--③-|
①口⑤口 |④-⑤-|
14
③④⑤⑥ |----|
②口口口 |①-②-|
①口口口 |③-④-|
口口口口 |⑤-⑥-|
15
③口④口 |--①-|
口口口口 |--②-|
口口口口 |--③-|
②口口① |--④-|
16
口口口① |①---|
⑤口口口 |②-③-|
口口口② |--④-|
④口⑤③ |--⑤-|
17
口②②口 |--①-|
口口口① |--②-|
④②②③ |--③-|
口①口口 |④---|
18
⑤口⑥② |①---|
口口③口 |②---|
口④口口 |③-④-|
②①①⑤ |⑤-⑥-|
19
⑤口口① |----|
口②⑥口 |①-②-|
口口③口 |③-④-|
①④口⑤ |⑤-⑥-|
20
⑤①⑥② |①---|
口口口口 |②-③-|
④口③口 |--④-|
②口口⑤ |⑤-⑥-|
21
口⑤口② |--①-|
④口口③ |②-③-|
口③⑤口 |--④-|
②④①口 |--⑤-|
22
口口⑥⑤ |----|
口②③口 |①-②-|
①④口① |③-④-|
⑤口口口 |⑤-⑥-|
23
②口口④ |--①-|
⑤口口口 |②-③-|
口口①口 |----|
④③口② |④-⑤-|
24
口口口口 |①---|
口①①口 |②-③-|
②③③口 |--④-|
④⑤⑤口 |⑤---|
25
④口口③ |①-②-|
口②②① |----|
口口口口 |③---|
③口口④ |④---|
26
口口①口 |①---|
①口口口 |②---|
口④③② |③---|
口口⑤口 |④-⑤-|
27
口口口口 |①-②-|
口⑤口③ |--③-|
①口④口 |④-⑤-|
口②口⑥ |--⑥-|
28
口口口口 |①---|
口口口口 |②---|
①②③④ |③---|
口口口口 |④---|
29
口口口口 |①---|
④③②① |②---|
口口口口 |③---|
口口口口 |④---|
30
口①口口 |①---|
口口口① |②---|
②③④口 |③---|
口⑤口口 |④-⑤-|
31
口口口口 |①-②-|
③口口④ |--③-|
口口口① |--④-|
⑤口②口 |--⑤-|
32
口口口口 |①-②-|
口口口口 |③---|
⑤④③① |④---|
口口②口 |⑤---|
33
口口口口 |①---|
①②③④ |②---|
口口口口 |③---|
口口口口 |④---|
34
口口①口 |①---|
①口口口 |②---|
口④③② |③---|
口口⑤口 |④-⑤-|
35
口口口口 |①-②-|
口④口③ |--③-|
①口口口 |--④-|
口②口⑤ |--⑤-|
36
口口口口 |①---|
口口口口 |②---|
①②③④ |③---|
口口口口 |④---|
37
口口口口 |①---|
④③②① |②---|
口口口口 |③---|
口口口口 |④---|
38
口①口口 |①---|
口口口① |②---|
②③④口 |③---|
口⑤口口 |④-⑤-|
39
⑤口口⑤ |①-②-|
④口口③ |--③-|
口⑤⑤① |--④-|
③口②④ |--⑤-|
40
口口口口 |--①-|
口⑤⑥口 |②-③-|
①⑦口② |④-⑤-|
口③④口 |⑥-⑦-|
41
口④③口 |①-②-|
②口⑧① |③-④-|
⑥⑦口⑤ |⑤-⑥-|
口口口口 |⑦-⑧-|
42
①口口① |①---|
②口口② |②---|
③口口③ |③---|
④口口④ |④---|
43
口①①② |--①-|
口口口③ |----|
口口口④ |----|
口①①口 |②③④-|
44
口口④口 |①-②-|
①②③口 |③-④-|
③②①口
④口口口

⑥口口口
口口口⑥
口口⑥口 |--⑤-|
口⑤⑤口 |--⑥-|
45
③口③① |--①-|
①③口口 |--②-|
口①口口 |----|
②口口② |③---|
46
口口口⑥ |①-②-|
口口口⑥ |③-④-|
④口口① |--⑤-|
⑤③②⑤ |--⑥-|
47
口②口口 |--①-|
③②①口 |--②-|
③口①口 |--③-|
口口口口 |----|
48
口④口口 |①-②-|
口③②① |③-④-|
口①②③
口口口④

口口口⑥
口口口⑥
口⑥口口 |--⑤-|
口⑤⑤口 |--⑥-|
49
①口③口 |--①-|
①③口③ |--②-|
口口①口 |----|
②口口② |③---|
50
⑤口口口 |①-②-|
口⑥口口 |③-④-|
①口⑦④ |--⑤-|
口②③口 |⑥-⑦-|
51
③口口③ |----|
口口口口 |--①-|
①口口口 |②---|
口②口口 |③---|
52
⑥⑥④口 |①-②-|
①②③口 |③-④-|
③②①⑥ |--⑤-|
④⑤⑤口 |--⑥-|
53
③口③① |--①-|
口③口口 |--②-|
①①口口 |----|
②口口② |③---|
54
⑥口口口 |①-②-|
⑥口口口 |③-④-|
④口口① |--⑤-|
⑤③②⑤ |--⑥-|
55
口口②口 |--①-|
口①②③ |--②-|
口①口③ |--③-|
口④④口 |--④-|
56
口口⑥口 |①---|
③⑥④⑤ |②---|
口④口口 |③-④-|
①口口② |⑤-⑥-|
57
①口口② |①---|
口口口口 |②---|
③口口④ |③---|
口⑤口④ |④-⑤-|
58
③口口④ |①-②-|
⑤②①⑥ |③---|
⑥①②⑤ |④---|
口口口口 |⑤-⑥-|
59
口口口口 |----|
口③口口 |①---|
口②③口 |②---|
②口②① |③---|
60
口①②① |①---|
①口①③ |②---|
口口口④ |③---|
口口口口 |④---|
61
口口口口 |①---|
④口③口 |②---|
③口口口 |③---|
口②①口 |④---|
62
口①②口 |①---|
口③口③ |②---|
口口口④ |③---|
口口①口 |④---|
63
口口口口 |①---|
④口③口 |②---|
③①口口 |③---|
口②①口 |④---|
64
口①②口 |①---|
口③口③ |②---|
口口口④ |③---|
口口①口 |④---|
65
口口口口 |①---|
④口③口 |②---|
③①口口 |③---|
口②①口 |④---|
66
口①②口 |①---|
口口口口 |②---|
口口口口
口口①口

口口口口
口③口③
口口口④ |③---|
口⑤⑤口 |④-⑤-|
67
①口口② |--①-|
③口④④ |②-③-|
⑤口⑥⑥ |④-⑤-|
⑦口口口 |⑥-⑦-|
68
口⑥③口 |①-②-|
口⑦④口 |③-④-|
⑤②口口 |--⑤-|
口①口口 |⑥-⑦-|
69
口口口② |--①-|
④口口③ |②-③-|
口口①口 |--④-|
口⑤⑤口 |--⑤-|
70
⑤口口口 |----|
⑤口④③ |--①-|
①②口口 |②-③-|
口口口口 |④-⑤-|
71
口口口③ |--①-|
口④④③ |--②-|
口口①口 |--③-|
②②①口 |--④-|
72
口口口口 |①---|
口口口④ |②---|
①③口② |③---|
口③口口 |④---|
73
①③口口 |①---|
①③⑧口 |②---|
口⑦⑥② |③-④-⑤-|
口⑤④口 |⑥-⑦-⑧-|
74
①口口口 |①---|
⑤口口口 |②---|
①口④口 |--③-|
③口口② |④-⑤-|
75
③口口③ |--①-|
口口①① |②---|
②②口口 |③---|
④口口④ |④---|
76
口口口⑥ |①-②-|
①口②⑥ |③-④-|
口③口④ |--⑤-|
⑤口口口 |--⑥-|
77
①口口口 |--①-|
①口口③ |--②-|
口口口口 |----|
口②②口 |③---|
78
口⑥口口 |①-②-|
①口口⑤ |③-④-|
②口口口 |--⑤-|
口③④口 |--⑥-|
79
口口口口 |--①-|
口口口④ |--②-|
①口口③ |③-④-|
口口②口 |----|
80
口①口⑥ |①-②-|
口口②⑥ |③-④-|
口③口口 |--⑤-|
⑤口④口 |--⑥-|
81
①③口口 |--①-|
①口口口 |--②-|
口口口口 |----|
口②②口 |③---|
82
口口口口 |①-②-|
⑤口口① |③-④-|
口⑥⑦② |--⑤-|
口④③口 |⑥-⑦-|
83
②口口② |----|
口①①口 |①-②-|
②口口② |----|
口③③口 |③---|
84
口口④口 |①-②-|
①②③口 |③-④-|
③②①口
④口口口

⑥⑥口口
口口口口
口口⑥⑥ |--⑤-|
口⑤⑤口 |--⑥-|
85
③口③① |--①-|
①③口① |--②-|
①口口口 |----|
②口口② |③---|
86
⑥口口口 |①-②-|
⑥口口口 |③-④-|
④口口① |--⑤-|
⑤③②⑤ |--⑥-|
87
口口②口 |--①-|
口①②③ |--②-|
口①口③ |--③-|
口④④口 |--④-|
88
口口⑥口 |①---|
③⑥④⑤ |②---|
口④口口 |③-④-|
①口口② |⑤-⑥-|
89
①口口② |①---|
口口口口 |②---|
③口口④ |③---|
口⑤口④ |④-⑤-|
90
③口口④ |①-②-|
⑤②①⑥ |③---|
⑥①②⑤ |④---|
口口口口 |⑤-⑥-|
91
口口口口 |----|
口③口口 |①---|
口②③口 |②---|
②口②① |③---|
92
口口②口 |①---|
口③③② |----|
①②口口 |②---|
口①②口 |③---|
93
口③口② |①-②-|
④口口⑤ |--③-|
③⑥口口 |--④-|
①口口口 |⑤-⑥-|
94
口④⑤口 |①-②-|
口②口口 |③---|
口⑤④① |④---|
口口口③ |⑤---|
95
口③口② |①-②-|
④口口⑤ |--③-|
③⑥口口 |--④-|
①口口口 |⑤-⑥-|
96
④口口口 |①-②-|
口④⑥⑤ |③---|
口口口① |④---|
口②口③ |⑤-⑥-|
97
口口口口 |①---|
①口口口 |②-③-|
④①③② |④---|
口④⑥⑤ |⑤-⑥-|
98
口②③口 |①---|
口④⑤口 |②③④⑤|
⑥①口口 |--⑥-|
①⑥口口 |----|
99
①口口③ |①---|
口口口口 |--②-|
口①③② |----|
口口②口 |③---|
100
口③口口 |--①-|
口①②口 |----|
口③口③ |②---|
②①②① |--③-|
101
①口①② |----|
口③口口 |①---|
①口③口 |--②-|
②口口口 |③---|
102
口②①口 |----|
②口口① |①-②-|
①口口② |----|
口①②口 |----|

accuracy: 99.5%
最終更新:2024年09月08日 17:18