アットウィキロゴ
ヒカリユリイカ
ここなつ

EXTREME

Level: 8
BPM: 140
Notes(hold): 565(34)

1
口口口口 |----|
口口口口 |----|
口口口口 |----|
口口口口 |----|
2
①口①口 |①---|
口②口② |②---|
③口③口 |③---|
口④口④ |④---|
3
口③口① |①---|
④口②口 |②---|
口③口① |③---|
④口②口 |④---|
4
⑤<>⑤ |①---|
口③口③ |②---|
②④②口 |③---|
口①④① |④-⑤-|
5
①口口① |----|
口②口口 |----|
口口③口 |①-②-|
口口口口 |③---|
6
口④口⑤ |①---|
口口③④ |②---|
③②口口 |③---|
口①①② |④-⑤-|
7
口③口口 |--①-|
②④口口 |--②-|
②⑤口口 |--③-|
口①口口 |④-⑤-|
8
③口⑤④ |①---|
口口口② |②---|
口③④口 |③---|
口①②口 |④-⑤-|
9
④口口口 |①-②-|
④口①口 |③---|
口②口口 |----|
口③口口 |④---|
10
口口①① |①---|
口口口口 |②---|
③⑤②② |③---|
③口口④ |④-⑤-|
11
口②口③ |①-②-|
口口口① |③---|
口口④口 |----|
口口④口 |④---|
12
口口口口 |①-②-|
口口口④ |③-④-|
③①口① |--⑤-|
口口口② |⑥-⑦-|

口⑦⑦口
口⑥口口
口⑤口口
口口口口
13
口口口① |--①-|
口口口② |②-③-|
④口③③ |--④-|
口④口口 |----|
14
口②口① |①②③④|
口⑧⑤⑨ |⑤-⑥⑦|
⑩④口③ |-⑧⑨-|
⑥⑩⑦口 |⑩---|
15
⑨④口⑤ |①-②③|
口口⑧口 |④⑤⑥⑦|
⑩⑥口⑦ |⑧-⑨-|
②⑩③① |⑩---|
16
口②⑪① |①②③④|
口⑧⑤⑨ |⑤-⑥⑦|
⑩④口③ |-⑧⑨-|
⑥⑩⑦口 |⑩-⑪-|
17
口⑤口口 |①-②-|
口④①口 |③-④-|
口③②口 |⑤---|
口口口口 |⑥-⑦-|

口口口⑥
口口⑦口
口口口口
口口口口
18
②口口口 |①--②|
口口口口 |--③-|
①①③③ |--④-|
④口口⑤ |⑤---|
19
口口口② |①--②|
口口口口 |--③-|
③③①① |----|
口口口口 |④-⑤-|

口口口口
口口口⑤
口口口④
口口口口
20
――① |①-②-|
④口口口 |--③-|
③口口口 |--④-|
②口⑤口 |--⑤-|
21
口口口④ |--①-|
③口口口 |--②-|
②口口口 |--③-|
①口④口 |--④-|
22
①口口口 |①-②-|
|口口④ |③-④-|
|口口③ |⑤-⑥-|
∧口口② |⑦-⑧-|

⑧⑧⑧口
口口⑦口
口口⑥口
口口⑤口
23
口口口⑤ |--①-|
口口口③ |②-③-|
①②口口 |④---|
②①口④ |⑤---|
24
①口①口 |①--②|
④⑤③⑥ |③-④-|
①②①口 |--⑤-|
④⑤口⑥ |--⑥-|
25
口口口口 |-①②-|
口口②口 |--③-|
口①口口 |④-⑤-|
口口②口 |⑥-⑦-|

口口口⑥
③④口口
口⑦⑤⑥
④③口口
26
①②口口 |①---|
口④③② |②-③-|
①口⑤④ |④-⑤-|
口口口口 |--⑦-|

口⑦口口
口口口⑦
⑦口口口
口口⑦口
27
口口口口 |----|
口⑤④口 |--①-|
口③②口 |②-③-|
口①口口 |④-⑤-|
28
口口①口 |①--②|
②⑥⑦口 |--③-|
②④⑤口 |④-⑤-|
口口③口 |⑥-⑦-|
29
③①口口 |①--②|
|口口② |--③-|
|口口② |④-⑤-|
∧口口口 |⑥-⑦-|

⑥口口口
口⑤④口
口⑥⑦口
口口口口
30
∨口口口 |①-②-|
|口口口 |③-④-|
④口口① |--⑤-|
口③②口 |⑥-⑦-|

―⑦口
口口⑥口
⑤口⑤口
口口口口
31
口口②口 |--①-|
①口口口 |②-③-|
②口口口 |④---|
口③④口 |⑤---|

口口口口
⑤口口⑤
口口口口
⑤口口⑤
32
口①口① |①---|
⑤②④③ |②-③-|
口①口① |--④-|
⑤②④③ |--⑤-|
33
口口口口 |-①②-|
口②口口 |--③-|
口口①口 |④-⑤-|
口②口口 |⑥-⑦-|

⑥口口口
口口④③
⑥⑤⑦口
口口③④
34
口口②① |①---|
②③④口 |②-③-|
④⑤⑥① |④-⑤-|
⑥⑦口口 |⑥-⑦-|
35
②――< |--①-|
②――< |②-③-|
口口口① |④-⑤-|
口口口① |⑥-⑦-|

⑥口口口
⑥口口⑦
口⑤⑥口
口④③口
36
∨③口① |①--②|
③∧①口 |--③-|
口口口口 |--④-|
口口②口 |⑤-⑥-|

口⑤口口
⑤口口⑥
口④⑤口
口口口口
37
③<口① |①--②|
③①口 |--③-|
口口口口 |----|
口口②口 |④---|

④口口④
口④口口
口口口口
口口口口
38
口③<口 |①---|
③口口② |②-③-|
∧口②口 |----|
口①①口 |④-⑤-|

口⑤口口
⑤④⑤口
口⑤口口
口口口口
39
口②③口 |----|
③④口② |①---|
②口④③ |②---|
①③②① |③-④-|
40
口口口口 |①---|
口口①< |----|
①口口 |----|
口口口口 |②-③-|

③口口口
口口②口
口②口口
口口口口
41
口③①口 |①-②-|
③⑤口④|--③-|
口口②口 |--④-|
口⑥口口 |⑤-⑥-|
42
③口口② |①---|
口③②口 |--②-|
口④口口 |③---|
口口口① |--④-|
43
③口口② |①-②-|
口口①口 |--③-|
口口④口 |--④-|
口口口⑤ |⑤---|
44
口①①口 |①---|
口②③② |②-③-|
口④⑤④ |④-⑤-|
口⑥⑦⑥ |⑥-⑦-|
45
③①②口 |①-②-|
①口口② |--③-|
③口口口 |--④-|
口口口口 |⑤-⑥-|

口⑥⑤⑥
⑥|⑥⑤
|∧口口
∧④④口
46
口口口口 |----|
口口口口 |--①-|
口口口① |----|
口口①口 |--②-|

口②口②
②口②口
口口口口
口口口口
47
①口口③ |----|
口①口口 |--①-|
②口①③ |②---|
口口口口 |③---|
48
口口口⑥ |①---|
①⑤④⑥ |②-③-|
口口口口 |④-⑤-|
①③②口 |--⑥-|
49
①②口口 |-①②-|
口口口口 |--③-|
口③口④ |④---|
口口口口 |⑤---|

⑤口口口
口口口口
⑤口口口
口口口口
50
口②③口 |①---|
口口口① |②-③-|
口④⑤口 |④-⑤-|
口口口① |--⑥-|

∨口口口
|∨口口
⑥|口口
口⑥口口
51
口口口⑥ |----|
④⑤口口 |①-②-|
①口③② |③-④-|
口①口口 |⑤-⑥-|
52
口口①口 |①--②|
③④口口 |--③-|
口口⑥⑤ |④-⑤-|
⑦口②口 |⑥-⑦-|
53
口②口③ |①--②|
口口口∧ |--③-|
口口口③ |----|
口①口∧ |④-⑤-|

⑤口口④
口口口口
口④④④
口口口口
54
口口口口 |①-②-|
口①口口 |③-④-|
②口④口 |--⑤-|
口③口口 |⑥-⑦-|

口口口⑤
⑦⑦⑥口
⑦⑦口口
口口口口
55
口口口口 |----|
③口口③ |--①-|
口口口口 |②---|
③②①③ |③---|
56
①②①② |①---|
③④②⑤ |②-③-|
①②①② |--④-|
③④口⑤ |--⑤-|
57
口口口口 |-①②-|
口口②口 |--③-|
口①口口 |④-⑤-|
口口②口 |⑥-⑦-|

口口口⑥
③④口口
口⑦⑤⑥
④③口口
58
①②口口 |①---|
口④③② |②-③-|
①⑥⑤④ |④-⑤-|
口口⑦⑥ |⑥-⑦-|
59
――② |--①-|
――② |②-③-|
①口口口 |④-⑤-|
①口口口 |⑥-⑦-|

口口口⑥
⑦口口⑥
口⑥⑤口
口③④口
60
①口③∨ |①--②|
口①∧③ |--③-|
口口口口 |--④-|
口②口口 |⑤-⑥-|

口口⑤口
⑥口口⑤
口⑤④口
口口口口
61
①口>③ |①--②|
口①③< |--③-|
口口口口 |----|
口②口口 |④---|

④口口④
口口④口
口口口口
口口口口
62
口>③口 |①---|
②口口③ |②-③-|
口②口∧ |----|
口①①口 |④-⑤-|

口口⑤口
口⑤④⑤
口口⑤口
口口口口
64
①口口① |----|
③④④③ |①---|
①口口① |②---|
③②②③ |③-④-|
65
①④③① |①---|
②――< |--②-|
①⑤⑥① |③-④-|
②――< |⑤-⑥-|
66
口口③① |--①-|
④口口口 |--②-|
口口④② |--③-|
④口口口 |--④-|
67
―⑩口 |①-②-|
⑥口⑤⑨ |③-④-|
④⑦⑧③ |⑤-⑥⑦|
口②①口 |⑧⑨⑩-|
68
口口①口 |----|
口口口口 |①---|
口口口口 |----|
口口口口 |----|
最終更新:2019年11月07日 04:37