アットウィキロゴ
革命パッショネイト
日向美ビタ-スイ-ツ♪

BASIC

Level: 4
BPM: 194
Notes: 302

1
口口口口 |----|
口口口口 |----|
口口口口 |----|
口口口口 |----|
2
口口口口 |①---|
口口口口 |----|
口口口口 |----|
①口口① |----|
3
口口口口 |①---|
口口口口 |----|
①口口① |----|
口口口口 |----|
4
口②②口 |①---|
①口口① |----|
口口口口 |----|
口口口口 |--②-|
5
口口口口 |----|
口口②② |①---|
口①①口 |----|
口口口口 |--②-|
6
①口③③ |----|
②口口口 |①---|
口口口口 |②---|
口口口口 |--③-|
7
口口口口 |----|
口口口口 |----|
①口口① |----|
口口口口 |--①-|
8
口口口口 |----|
口口口口 |----|
口口口口 |----|
口口口口 |----|
9
口口口口 |----|
口口口口 |----|
口口口口 |----|
口口口口 |----|
10
口口④④ |①---|
口③③口 |②---|
口②②口 |③---|
口①①口 |--④-|
11
口口口口 |----|
口口口口 |----|
①口口① |----|
口口口口 |--①-|
12
口口口口 |----|
口口口口 |----|
口口口口 |----|
①口口① |--①-|
13
口口口口 |----|
口口口口 |----|
口口①① |----|
口口口口 |--①-|
14
口口②② |----|
①①口口 |--①-|
口口口口 |----|
口口口口 |--②-|
15
口口口口 |----|
口口口口 |----|
口口口口 |----|
口口口口 |----|
16
①口口口 |①---|
口②口口 |②---|
口口③口 |③---|
口口口④ |④---|
17
口口口③ |①---|
口口口② |②---|
口口口① |③---|
口口口口 |----|
18
口口口口 |①---|
口口口口 |----|
口①①口 |----|
口口口口 |----|
19
口口口口 |①---|
口①①口 |----|
口口口口 |----|
口口口口 |----|
20
口口口① |①---|
口口②口 |②---|
口③口口 |③---|
④口口口 |④---|
21
③口口口 |①---|
②口口口 |②---|
①口口口 |③---|
口口口口 |----|
22
口口口口 |①---|
口口口口 |----|
口①①口 |----|
口口口口 |----|
23
口口口口 |①---|
口①①口 |----|
口口口口 |----|
口口口口 |----|
24
①口口口 |①---|
口②口口 |②---|
口口③口 |③---|
口口口④ |④---|
25
口口口③ |①---|
口口口② |②---|
口口口① |③---|
口口口口 |----|
26
口口口口 |①---|
口口口口 |----|
口①①口 |----|
口口口口 |----|
27
口口口口 |①---|
口①①口 |----|
口口口口 |----|
口口口口 |----|
28
②②①口 |①---|
口口③③ |--②-|
口口口口 |----|
口口口口 |--③-|
29
口口口口 |----|
口口口口 |--①-|
①①口口 |----|
口口②② |--②-|
30
口口口口 |----|
口口口口 |----|
口口口口 |----|
口口口口 |----|
31
③口口③ |①---|
②口口② |②---|
①口口① |③---|
口口口口 |----|
32
口口①口 |①---|
口②口口 |②---|
口③口口 |----|
口口口口 |③---|
33
口口口口 |①---|
口口口口 |----|
口口口口 |----|
口口①口 |----|
34
口①口口 |①---|
口口②口 |②---|
口口③口 |----|
口口口口 |③---|
35
口口口口 |①---|
口口口口 |----|
口口口口 |----|
口①口口 |----|
36
口口①口 |①---|
口②口口 |②---|
口③口口 |----|
口口口口 |③---|
37
口口口口 |①---|
口口口口 |----|
口口口口 |----|
口口①口 |----|
38
口口口口 |①---|
①口口① |----|
口口②② |----|
口口口口 |--②-|
39
口口②② |--①-|
①①口口 |--②-|
口口口口 |----|
口口口口 |----|
40
口①口口 |①---|
口口口口 |----|
口②口口 |----|
口口口口 |②---|
41
口口口口 |①---|
口口口口 |----|
口口口口 |----|
口口①口 |----|
42
口口①口 |①---|
口口口口 |----|
口口②口 |----|
口口口口 |②---|
43
口口口口 |①---|
口口口口 |----|
口口口口 |----|
口①口口 |----|
44
口口口口 |①---|
口口②② |--②-|
①口口① |----|
口口口口 |----|
45
口口③③ |①---|
②②口口 |--②-|
①口口① |----|
口口口口 |--③-|
46
①①口口 |----|
口口口口 |----|
口口口口 |----|
口口口口 |--①-|
47
口口口口 |----|
口口口口 |----|
口口口口 |----|
口口①① |--①-|
48
口口口口 |----|
口口口口 |①---|
①口③③ |②---|
②口口口 |--③-|
49
口口口口 |----|
口口③③ |①---|
口①口口 |②---|
口②口口 |--③-|
50
①口③③ |----|
②口口口 |①---|
口口口口 |②---|
口口口口 |--③-|
51
①①口口 |----|
口口口口 |--①-|
口口口口 |----|
口口口口 |----|
52
口④④口 |①---|
口③③口 |②---|
口②②口 |③---|
口①①口 |④---|
53
①口口① |①---|
②口口② |②---|
③口口③ |③---|
④口口④ |④---|
54
②②口口 |①---|
口①①口 |----|
口①①口 |----|
口口口口 |--②-|
55
口口口口 |----|
口口口口 |----|
口口口口 |----|
口口①① |--①-|
56
口口口口 |----|
口口口口 |①---|
①口③③ |②---|
②口口口 |--③-|
57
口口口口 |----|
口口③③ |①---|
口①口口 |②---|
口②口口 |--③-|
58
①口③③ |----|
②口口口 |①---|
口口口口 |②---|
口口口口 |--③-|
59
口口口口 |----|
口口口口 |----|
口①①口 |①---|
口口口口 |----|
60
①①①① |①---|
口口②② |----|
口口口口 |----|
口口口口 |--②-|
61
口口口口 |----|
口口口口 |----|
②②口口 |①---|
口①①口 |--②-|
62
口口②② |----|
口①①口 |----|
口口口口 |①---|
口口口口 |--②-|
63
口口口口 |----|
③③口口 |①---|
口①①口 |②---|
口②②口 |--③-|
64
口口口口 |----|
口口口口 |----|
口口口口 |----|
口口口口 |----|
65
口口口口 |----|
口口口口 |----|
口口口口 |----|
口口口口
66
口口口口 |----|
口口口口 |①---|
口口口口 |----|
口①①口
67
口口口口 |----|
口①①口 |----|
口口口口 |①---|
口口口口 |----|
68
口口口口 |----|
口口口口 |----|
口口口口 |----|
口口口口
69
口口口口 |----|
口口口口 |①---|
口口口口 |----|
①口口①
70
口口口口 |----|
①口口① |----|
口口口口 |①---|
口口口口

口口口口
口口口口
口口口口 |----|
口口口口 |----|
71
口口口口 |----|
口口口口 |----|
口口口口 |----|
口口口口
72
口口口口 |----|
口口口口 |①---|
口口口口 |----|
口①①口
73
口口口口 |----|
口①①口 |----|
口口口口 |①---|
口口口口 |----|
74
口口口口 |----|
口口口口 |----|
口口口口 |----|
口口口口
75
口口口口 |----|
口口口口 |①---|
口口口口 |----|
①口口①
76
口口口口 |----|
①口口① |----|
口口口口 |①---|
口口口口
77
口口口口 |----|
口口口口 |----|
口口口口 |--①-|
口口①①
78
口口口口 |----|
口口口口 |①---|
①口③③ |②---|
②口口口 |--③-|
79
口口口口 |----|
口口③③ |①---|
口①口口 |②---|
口②口口 |--③-|
80
①口③③ |----|
②口口口 |①---|
口口口口 |②---|
口口口口 |--③-|
81
①①口口 |----|
口口口口 |--①-|
口口口口 |----|
口口口口 |----|
82
口④④口 |①---|
口③③口 |②---|
口②②口 |③---|
口①①口 |④---|
83
①口口① |①---|
②口口② |②---|
③口口③ |③---|
④口口④ |④---|
84
②②口口 |①---|
口①①口 |----|
口①①口 |----|
口口口口 |--②-|
85
口口口口 |----|
口口口口 |----|
口口口口 |----|
口口①① |--①-|
86
口口口口 |----|
口口口口 |①---|
①口③③ |②---|
②口口口 |--③-|
87
口口口口 |----|
口口③③ |①---|
口①口口 |②---|
口②口口 |--③-|
88
①口③③ |----|
②口口口 |①---|
口口口口 |②---|
口口口口 |--③-|
89
口口口口 |----|
口口口口 |----|
口①①口 |①---|
口口口口 |----|
90
①①①① |①---|
口口②② |----|
口口口口 |----|
口口口口 |--②-|
91
口口口口 |----|
口口口口 |----|
②②口口 |①---|
口①①口 |--②-|
92
口口②② |----|
口①①口 |----|
口口口口 |①---|
口口口口 |--②-|
93
口口口口 |----|
③③口口 |①---|
口①①口 |②---|
口②②口 |--③-|
94
口口口口 |----|
口口①① |----|
口口口口 |----|
口口口口 |--①-|
95
①口③③ |----|
②口口口 |①---|
口口口口 |②---|
口口口口 |--③-|
96
口口口口 |----|
口口口口 |----|
①口口① |----|
口口口口 |--①-|
97
口口口口 |----|
口口口口 |----|
口口口口 |----|
①口口① |--①-|
98
口口口口 |----|
口口口口 |----|
口口①① |----|
口口口口 |--①-|
99
口口②② |----|
①①口口 |--①-|
口口口口 |----|
口口口口 |--②-|

accuracy: 99.5%
最終更新:2023年01月17日 11:03