アットウィキロゴ
革命パッショネイト
日向美ビタ-スイ-ツ♪

ADVANCED

Level: 7
BPM: 194
Notes: 580

1
口口口口 |----|
口口口口 |----|
口口口口 |----|
口口口口 |----|
2
②口口① |①-②-|
④口口③ |③-④-|
口口口口 |⑤---|
口⑤⑤口 |----|
3
口口口口 |①---|
口口口口 |----|
②②①① |②---|
口口口口 |----|
4
③口口③ |①---|
②②①① |----|
口口口口 |②---|
口口口口 |--③-|
5
⑤⑤②口 |----|
口③口口 |①---|
口口④口 |②-③-|
①口口① |④-⑤-|
6
口口④④ |----|
口口②口 |①---|
口③口口 |②-③-|
①①口口 |--④-|
7
①⑤⑤口 |----|
口②口口 |--①-|
口口③口 |②-③-|
口口口④ |④-⑤-|
8
口口口口 |----|
口口口口 |----|
口口口口 |----|
口口口口 |----|
9
口口口口 |----|
口口口口 |----|
口口口口 |----|
口口口口 |----|
10
口口⑤⑤ |①---|
①①③口 |②---|
口④口口 |③-④-|
②②口口 |--⑤-|
11
①⑤⑤口 |----|
口②口口 |--①-|
口口③口 |②-③-|
口口口④ |④-⑤-|
12
③口口③ |----|
口口①口 |①---|
口①口口 |②---|
口②②口 |--③-|
13
口口口口 |----|
③①口③ |①---|
③口①③ |②---|
②口口② |--③-|
14
口③③口 |----|
③口口③ |--①-|
口②②口 |--②-|
口①①口 |--③-|
15
口口口口 |----|
口口口口 |----|
口口口口 |----|
口口口口 |----|
16
口口口口 |--①-|
口口④④ |--②-|
③②①口 |--③-|
③②①口 |--④-|
17
口②②口 |--①-|
①①口口 |--②-|
口口口口 |----|
③④④③ |③-④-|
18
④口口① |--①-|
④口口① |----|
②③③② |②-③-|
口口口口 |--④-|
19
口口口口 |--①-|
口口口口 |②---|
口口口口 |----|
②①①② |----|
20
口①②③ |--①-|
口①②③ |--②-|
④口口口 |--③-|
口口口口 |--④-|
21
④③③④ |--①-|
口口⑤口 |②---|
口⑤口口 |③-④-|
①②②① |--⑤-|
22
③口④④ |----|
口②口口 |--①-|
口口①口 |②-③-|
口口口口 |--④-|
23
口口口口 |----|
口口口口 |----|
口口口口 |----|
口口口口 |----|
24
口口口口 |--①-|
口口④④ |--②-|
③②①口 |--③-|
③②①口 |--④-|
25
口②②口 |--①-|
①①口口 |--②-|
口口口口 |----|
③④④③ |③-④-|
26
④口口① |--①-|
④口口① |----|
②③③② |②-③-|
口口口口 |--④-|
27
口口口口 |--①-|
口口口口 |②---|
口口口口 |----|
②①①② |----|
28
④④口口 |①-②-|
口口②② |--③-|
③口⑤① |--④-|
口口口口 |--⑤-|
29
口口①① |--①-|
④口口④ |--②-|
③④④③ |--③-|
②口口② |--④-|
30
③②①口 |----|
口口④⑤ |--①-|
口口口口 |②-③-|
口口口口 |④-⑤-|
31
口口口口 |----|
口口口口 |----|
口口口口 |----|
口口口口 |----|
32
口口口口 |①-②-|
口口口口 |③-④-|
②口⑦① |--⑤-|
④⑥⑤③ |⑥-⑦-|
33
③③口① |①---|
②②口口 |----|
口①口口 |②---|
口口口口 |③---|
34
口口口口 |①-②-|
口口口口 |③-④-|
②口⑦① |--⑤-|
④⑥⑤③ |⑥-⑦-|
35
③③口① |①---|
②②口口 |----|
口①口口 |②---|
口口口口 |③---|
36
口口口口 |①-②-|
口口口口 |③-④-|
②口⑦① |--⑤-|
④⑥⑤③ |⑥-⑦-|
37
③③口① |①---|
②②口口 |----|
口①口口 |②---|
口口口口 |③---|
38
④口口④ |①---|
口③③口 |②-③-|
口②②口 |--④-|
①⑤⑤① |--⑤-|
39
③①①③ |--①-|
口口口口 |--②-|
口口口口 |--③-|
②口口② |----|
40
口口口口 |①-②-|
口口口口 |③-④-|
②口⑦① |--⑤-|
④⑥⑤③ |⑥-⑦-|
41
③③口① |①---|
②②口口 |----|
口①口口 |②---|
口口口口 |③---|
42
口口口口 |①-②-|
口口口口 |③-④-|
②口⑦① |--⑤-|
④⑥⑤③ |⑥-⑦-|
43
口口口① |①---|
口口口口 |----|
口①口口
口口口口

②口口口
②口③口
口④口口 |②---|
口口口口 |③-④-|
44
口⑦⑥⑤ |①-②-|
口④口口 |③-④-|
口口③口 |--⑤-|
口②①口 |⑥-⑦-|
45
⑦⑦口口 |①-②-|
口口⑥口 |③-④-|
口⑤口口 |--⑤-|
①②③④ |⑥-⑦-|
46
口口口口 |----|
口口口口 |----|
口口口口 |----|
口口口口 |----|
47
口口口口 |----|
口口口口 |----|
④口口② |①-②-|
③口口① |③-④-|
48
④④口口 |--①-|
口口③口 |②-③-|
口②口口 |④---|
⑤口①⑤ |--⑤-|
49
口⑤④④ |--①-|
⑤③口口 |②-③-|
口口②口 |④---|
口①口口 |--⑤-|
50
口口口口 |--①-|
口口口口 |②-③-|
口⑤⑥⑦ |④-⑤-|
④③②① |⑥-⑦-|
51
③②①口 |--①-|
口口口口 |②-③-|
口口口口 |----|
口口口口 |----|
52
③③①① |①---|
③③①① |②---|
口口口口 |③---|
口④②口 |④---|
53
③③①① |①---|
③③①① |②---|
口口口口 |③---|
口④②口 |④---|
54
③⑤④② |①---|
口口口口 |②-③-|
⑤①①④ |--④-|
口口口口 |--⑤-|
55
口口口口 |----|
口口口口 |----|
④口口② |①-②-|
③口口① |③-④-|
56
④④口口 |--①-|
口口③口 |②-③-|
口②口口 |④---|
⑤口①⑤ |--⑤-|
57
口⑤④④ |--①-|
⑤③口口 |②-③-|
口口②口 |④---|
口①口口 |--⑤-|
58
口⑥口口 |--①-|
口⑥⑤口 |②-③-|
口④⑤口 |④-⑤-|
③②①口 |--⑥-|
59
①口口① |----|
④口口④ |①---|
③口口③ |②---③-|
②口口② |--④---|
60
口①①口 |①---|
②①①② |----|
口口口口 |----|
口口口口 |--②-|
61
④④④④ |----|
口口口口 |①---|
口③③口 |②-③-|
①②②① |--④-|
62
口口口口 |----|
口口口③ |----|
口口口② |①---|
口①①口 |②-③-|
63
④口口④ |----|
口①①口 |①---|
③④④口 |②-③-|
②口口口 |--④-|
64
口口口口 |----|
口口口口 |----|
口口口口 |----|
口口口口 |----|
65
口口口口 |----|
口口口口 |----|
口口口口 |----|
口口口口
66
口口口口 |----|
口口口口 |①-②-|
③口④口 |③-④-|
①口②口
67
口④口③ |--①-|
口②口① |②-③-|
口口口口 |④---|
口口口口 |----|
68
口口口口 |----|
口口口口 |----|
口口口口 |----|
口口口口
69
口口口口 |----|
口口口口 |①-②-|
口③口④ |③-④-|
口①口②
70
④口③口 |--①-|
②口①口 |②-③-|
口口口口 |④---|
口口口口

口口口口
口口口口
口口口口 |----|
口口口口 |----|
71
口口口口 |----|
口口口口 |----|
口口口口 |----|
口口口口
72
口口口口 |----|
口口口口 |①-②-|
③口④口 |③-④-|
①口②口
73
口④口③ |--①-|
口②口① |②-③-|
口口口口 |④---|
口口口口 |----|
74
口口口口 |----|
口口口口 |----|
口口口口 |----|
口口口口
75
口口口口 |----|
口口口口 |①-②-|
口③口④ |③-④-|
口①口②
76
④口③口 |--①-|
②口①口 |②-③-|
口口口口 |④---|
口口口口
77
口口口口 |----|
口口口口 |①-②-|
④口口② |③-④-|
③口口①
78
④④口口 |--①-|
口口③口 |②-③-|
口②口口 |④---|
⑤口①⑤ |--⑤-|
79
口⑤④④ |--①-|
⑤③口口 |②-③-|
口口②口 |④---|
口①口口 |--⑤-|
80
口口口口 |--①-|
口口口口 |②-③-|
口⑤⑥⑦ |④-⑤-|
④③②① |⑥-⑦-|
81
③②①口 |--①-|
口口口口 |②-③-|
口口口口 |----|
口口口口 |----|
82
③③①① |①---|
③③①① |②---|
口口口口 |③---|
④④②② |④---|
83
③③①① |①---|
③③①① |②---|
口口口口 |③---|
④④②② |④---|
84
③口口② |①---|
③⑤④② |②-③-|
口①①口 |--④-|
⑤口口④ |--⑤-|
85
口口口口 |----|
口口口口 |----|
④口口② |①-②-|
③口口① |③-④-|
86
④④口口 |--①-|
口口③口 |②-③-|
口②口口 |④---|
⑤口①⑤ |--⑤-|
87
口⑤④④ |--①-|
⑤③口口 |②-③-|
口口②口 |④---|
口①口口 |--⑤-|
88
口⑥口口 |--①-|
口⑥⑤口 |②-③-|
口④⑤口 |④-⑤-|
③②①口 |--⑥-|
89
①口口① |----|
④口口④ |①---|
③口口③ |②---③-|
②口口② |--④---|
90
口①①口 |①---|
②①①② |----|
口口口口 |----|
口口口口 |--②-|
91
④④④④ |----|
口口口口 |①---|
口③③口 |②-③-|
①②②① |--④-|
92
口口口口 |----|
口口口③ |----|
口口口② |①---|
口①①口 |②-③-|
93
④口口④ |----|
口①①口 |①---|
③④④口 |②-③-|
②口口口 |--④-|
94
④④①口 |----|
口②口口 |----|
口口③口 |①-②-|
口口口口 |③-④-|
95
口口④④ |----|
口口②口 |①---|
口③口口 |②-③-|
①①口口 |--④-|
96
①⑤⑤口 |----|
口②口口 |--①-|
口口③口 |②-③-|
口口口④ |④-⑤-|
97
③口口③ |----|
口口①口 |①---|
口①口口 |②---|
口②②口 |--③-|
98
口口口口 |----|
③①口③ |①---|
③口①③ |②---|
②口口② |--③-|
99
口③③口 |----|
③口口③ |--①-|
口②②口 |--②-|
口①①口 |--③-|

accuracy: 99.5%
最終更新:2023年01月17日 11:03