アットウィキロゴ
革命パッショネイト
日向美ビタ-スイ-ツ♪

EXTREME

Level: 10.2
BPM: 194
Notes: 861

1
口口口口 |----|
口口口口 |----|
口口口口 |----|
口口口口 |----|
2
⑨⑨口⑧ |①②③-|
口⑦口⑥ |④-⑤-|
口⑤⑥④ |⑥-⑦-|
口③②① |⑧-⑨-|
3
④口⑤口 |--①-|
③口口口 |②---|
②口口口 |③---|
口②①口 |④-⑤-|
4
⑤⑤口④ |①---|
口口口③ |②---|
口口口② |③---|
①口口口 |④-⑤-|
5
口⑥口⑥ |--①-|
⑤口口口 |②---|
口④口① |③-④-|
③口②② |⑤-⑥-|
6
口口口口 |----|
④口口② |①---|
口口③口 |②-③-|
④①口① |--④-|
7
②口口口 |----|
口③口① |--①-|
口口④① |②-③-|
口⑤口⑤ |④-⑤-|
8
⑤④③② |--①-|
⑨口口⑧ |②③④⑤|
⑦①口⑥ |⑥-⑦-|
口口口口 |⑧-⑨-|
9
口口⑫⑬ |--①-|
⑩⑪⑧⑨ |②③④⑤|
⑥⑦④⑤ |⑥⑦⑧⑨|
②③口① |⑩⑪⑫⑬|
10
①口口口 |①---|
口口口口 |②---|
口口口口
②口口②

⑤口⑤口
口口口口
口③口口 |③-④-|
口口④口 |--⑤-|
11
口⑤口⑤ |----|
口口④① |--①-|
口③口① |②-③-|
②口口口 |④-⑤-|
12
②口②口 |----|
口②口④ |①---|
口口①④ |②---|
③①口① |③-④-|
13
⑤①③③ |--①-|
口口口口 |②---|
⑤口口口 |③---|
④②②口 |④-⑤-|
14
⑤口口③ |--①-|
⑥④口口 |②-③-|
口口①③ |--④-|
⑥口口② |⑤-⑥-|
15
⑩⑥⑦③ |--①②|
口口⑪⑪ |③④⑤⑥|
④⑧⑤口 |⑦⑧⑨⑩|
口②①⑨ |⑪---|
16
⑤④③② |①-②-|
③口⑤口 |--③-|
口⑤口口 |--④-|
口②①④ |--⑤-|
17
口口③① |--①-|
③①口④ |--②-|
口口①口 |----|
②②④口 |③-④-|
18
口③口口 |--①②|
口口⑤⑤ |----|
③①②④ |③-④-|
口④⑤⑤ |--⑤-|
19
②口口口 |--①-|
②口口口 |②---|
口口①口 |----|
口口口口 |----|
20
②③④⑤ |①-②-|
口⑤口③ |--③-|
口口⑤口 |--④-|
④①②口 |--⑤-|
21
①③⑤⑤ |--①-|
口口①⑤ |②---|
④①口口 |③-④-|
④②②口 |--⑤-|
22
口③④④ |----|
③口②口 |--①-|
口②口① |②-③-|
④④①口 |--④-|
23
①口口口 |--①-|
口②口⑥ |②-③-|
③⑦⑤口 |④-⑤-|
口口口④ |⑥-⑦-|
24
⑧⑥④② |①-②-|
④⑧口⑦ |③-④-|
⑧口口③ |⑤-⑥-|
⑤②①⑥ |⑦-⑧-|
25
口口③① |--①-|
③口①④ |--②-|
口口口① |----|
②②④口 |③-④-|
26
口③口口 |--①②|
口⑤⑥⑥ |----|
③①②④ |③-④-|
口④⑥⑥ |⑤-⑥-|
27
②④口① |--①-|
②口口口 |②---|
口口口③ |③---|
口口口口 |④---|
28
②口①口 |①-②-|
③②③① |--③-|
①口②口
③①③②

口④口④
口口口⑤
口④口④ |--④-|
口⑤口口 |--⑤-|
29
①口①④ |--①-|
③③口④ |--②-|
①口①口 |--③-|
④口②② |--④-|
30
①⑥⑥口 |----|
⑤口③口 |①-②-|
口④口② |③-④-|
口口口口 |⑤-⑥-|
31
④口口⑤ |①-②-|
口③⑥口 |③-④-|
口⑦②口 |⑤-⑥-|
⑧口口① |⑦-⑧-|
32
⑦口②④ |①-②-|
①③⑤⑦ |③-④-|
口口口口 |⑤-⑥-|
⑧⑥③① |⑦-⑧-|
33
口①②口 |①--②|
口④口口 |③-④-|
①③口口
口口口①

⑥⑧口口
口口⑤⑦
口口⑤⑦ |⑤-⑥-|
口口口口 |⑦-⑧-|
34
口⑦④② |①-②-|
①③⑤⑦ |③-④-|
口口口口 |⑤-⑥-|
⑥⑧①③ |⑦-⑧-|
35
①口口① |①--②|
口④口口 |③-④-|
①③口口
口口②口

⑧⑥口口
口口⑤⑦
口口⑤⑦ |⑤-⑥-|
口口口口 |⑦-⑧-|
36
⑦口②④ |①-②-|
①③⑤⑦ |③-④-|
口口口口 |⑤-⑥-|
⑧⑥③① |⑦-⑧-|
37
口①②口 |①--②|
口④口口 |③-④-|
①③口口
口口口①

⑥⑧口口
口口⑤⑦
口口⑤⑦ |⑤-⑥-|
口口口口 |⑦-⑧-|
38
④口②② |①---|
口④口口 |②-③-|
①⑤④⑤ |--④-|
①①③③ |--⑤-|
39
口②口② |--①-|
①口①③ |--②-|
口口③口 |--③-|
口③口口 |----|
40
⑥口②④ |①-②-|
②口口⑦ |③-④-|
②①⑥⑦ |--⑤-|
⑦⑤③① |⑥-⑦-|
41
口①②口 |①--②|
口③口口 |--③-|
口口口口
口口口①

⑤⑦口口
口口④⑥
口口口口 |④-⑤-|
口口口口 |⑥-⑦-|
42
口⑥④② |①-②-|
②口口⑦ |③-④-|
②①⑥⑦ |--⑤-|
⑤⑦①③ |⑥-⑦-|
43
①口口① |①--②|
口③口口 |--③-|
口口口口
口口②口

⑦⑤口口
口口④口
口口口口 |④-⑤-|
⑥口口口 |⑥-⑦-|
44
口⑦②② |①-②-|
①口⑥③ |③-④-|
①口③⑤ |--⑤-|
口口④④ |⑥-⑦-|
45
⑦口②⑦ |①-②-|
①④口④ |③-④-|
口⑥②口 |--⑤-|
①③⑤③ |⑥-⑦-|
46
口口⑤⑤ |--①-|
口③①⑤ |②---|
③④③④ |③-④-|
②口④口 |--⑤-|
47
①⑧口⑧ |----|
②口⑦⑦ |①②③④|
③⑥口⑥ |⑤-⑥-|
④口⑤⑤ |⑦-⑧-|
48
①口①口 |--①-|
②②⑤⑤ |②-③-|
③口③口 |④---|
④④⑤⑤ |--⑤-|
49
②口④① |--①-|
⑤⑤口口 |②-③-|
口③④① |④---|
⑤⑤口口 |--⑤-|
50
①②③④ |--①-|
⑦口⑤③ |②-③-|
口⑥口② |④-⑤-|
⑦口⑦① |⑥-⑦-|
51
③口口口 |--①-|
口①口口 |②-③-|
口口②口 |----|
口口口③ |----|
52
④口口② |①---|
①③③口 |②---|
口口口① |③---|
④口口② |④---|
53
④口口② |①---|
口口口① |②---|
①③③口 |③---|
④口口② |④---|
54
口口口② |①---|
口①①口 |②-③-|
①口③①
口口口口

口⑤⑤口
④⑤口⑤
⑤⑤口口 |--④-|
⑤⑤口口 |--⑤-|
55
口口口④ |----|
④口②口 |----|
④口③口 |①-②-|
口口口① |③-④-|
56
④④④口 |--①-|
口②⑤⑤ |②-③-|
口③口口 |④---|
①口⑤⑤ |--⑤-|
57
④口口① |--①-|
⑤⑤口口 |②-③-|
②④①③ |④---|
⑤⑤口口 |--⑤-|
58
④⑥⑥② |--①-|
口口口口 |②-③-|
口口③口 |④-⑤-|
口口①⑤ |--⑥-|
59
③口口② |----|
口口口口 |①---|
①口口① |②---③-|
③④④② |--④---|
60
②①①② |①---|
①口口① |----|
②口口② |----|
口口口口 |--②-|
61
口口④口 |----|
③②口④ |①---|
口口口口 |②-③-|
口①①口 |--④-|
62
口口口口 |----|
口口②③ |----|
口口口口 |①---|
口①①口 |②-③-|
63
④①口④ |----|
①④④口 |①---|
②④④② |②-③-|
③口口③ |--④-|
64
口口口口 |----|
口口口口 |----|
口口口口 |----|
口口口口 |----|
65
口口口口 |----|
口口口口 |----|
口口口口 |----|
口口口口
66
口口②④ |----|
口口口口 |①-②-|
口口口口 |③-④-|
口口③①
67
②④口口 |--①-|
口⑤口口 |②-③-|
⑤口口口 |④---|
③①口口 |⑤---|
68
口口口口 |①---|
口口①② |②---|
口①②口 |----|
口口口口
69
口口④② |----|
口口口口 |①-②-|
口口口口 |③-④-|
口口①③
70
④②口口 |--①-|
口口口口 |②-③-|
口口口口 |④---|
①③口口

口口口口
⑤⑥口口
口⑤⑥口 |⑤---|
口口口口 |⑥---|
71
口口口口 |①---|
口口①口 |----|
口口口① |----|
口口口口
72
口口②④ |----|
口口口口 |①-②-|
口口口口 |③-④-|
口口③①
73
②④口口 |--①-|
口⑤口口 |②-③-|
⑤口口口 |④---|
③①口口 |⑤---|
74
口口口口 |①---|
口口①② |②---|
口①②口 |----|
口口口口
75
口口④② |----|
口口口口 |①-②-|
口口口口 |③-④-|
口口①③
76
④②口口 |--①-|
口口口口 |②-③-|
口口口口 |④---|
①③口口
77
口⑤口⑤ |①---|
①口④④ |②-③-|
①③口③ |④-⑤-|
口口②②
78
①⑤①口 |--①-|
②②⑥⑥ |②-③-|
③口③口 |④---|
④④⑥⑥ |⑤-⑥-|
79
②口④① |--①-|
⑥⑥口口 |②-③-|
⑤③④① |④---|
⑥⑥口口 |⑤-⑥-|
80
①②③④ |--①-|
⑦口⑤③ |②-③-|
⑦⑥口② |④-⑤-|
⑦⑦⑦① |⑥-⑦-|
81
③口③口 |--①-|
口①口③ |②-③-|
口口②口 |----|
口口口③ |----|
82
④③口② |①---|
③口①③ |②---|
①口③① |③---|
④①口② |④---|
83
④③口② |①---|
③口①③ |②---|
①口③① |③---|
④①口② |④---|
84
口口口② |①---|
口口①口 |②-③-|
口①③①
口口①口

口⑤⑤口
④⑤口⑤
⑤⑤口口 |--④-|
⑤⑤口口 |--⑤-|
85
④③口口 |----|
③口②口 |----|
口④口① |①-②-|
口口①② |③-④-|
86
口口①① |--①-|
口③⑥⑥ |②-③-|
口口②⑤ |④---|
④④⑥⑥ |⑤-⑥-|
87
④②⑤① |--①-|
⑥⑥口口 |②-③-|
③①④口 |④---|
⑥⑥口口 |⑤-⑥-|
88
④⑥⑥② |--①-|
口口②③ |②-③-|
口④③① |④-⑤-|
口口①⑤ |--⑥-|
89
③口口② |----|
口④④口 |①---|
①口口① |②---③-|
③④④② |--④---|
90
口①①口 |①---|
①口口① |----|
口口口口
口口口口

口口口口
②口口②
口口口口 |----|
②口口② |--②-|
91
口①①④ |----|
口①①④ |①---|
③②口口 |②-③-|
口④口口 |--④-|
92
口口②口 |----|
口②口口 |①---|
②口③④ |②---|
口口口① |③-④-|
93
①④②③ |----|
④口口口 |①---|
口口口④ |②-③-|
③②④① |--④-|
94
口⑤口⑤ |----|
④口①口 |①---|
口③口口 |②-③-|
②口口口 |④-⑤-|
95
口口口口 |----|
④口口② |①---|
口口③口 |②-③-|
④①口① |--④-|
96
③口口口 |----|
口④口② |①-②-|
口口⑤② |③-④-|
口⑥①⑥ |⑤-⑥-|
97
口①⑤① |----|
口口④⑤ |①---|
⑤口③口 |②-③-|
②⑤②口 |④-⑤-|
98
③口口⑥ |--①-|
口①口⑤ |②---|
口②口④ |③-④-|
口口⑥③ |⑤-⑥-|
99
③④②口 |--①-|
口⑤①口 |②-③-|
口⑥⑥④ |--④-|
⑥③口⑥ |⑤-⑥-|

accuracy: 99.5%
最終更新:2023年01月17日 11:03