アットウィキロゴ
流星ダンスフロア
ORESAMA

BASIC

Level: 3
BPM: 133
Notes: 158

1
口口口口 |----|
口口口口 |----|
口口口口 |----|
口口口口 |----|
2
口口口口 |①---|
口口口口 |----|
口①①口 |----|
口口口口 |----|
3
口口口口 |①---|
②口口① |----|
口口口口 |②---|
口口口口 |----|
4
口①①口 |①---|
口口口口 |----|
口口口口 |----|
口口口口 |----|
5
口口口口 |①---|
口口口口 |----|
口②①口 |②---|
口口口口 |----|
6
口口口口 |①---|
口②①口 |----|
口口口口 |②---|
口口口口 |----|
7
口②①口 |①---|
口口口口 |----|
口口口口 |②---|
口口口口 |----|
8
②口口① |①---|
口口口口 |----|
口口口口 |②---|
口口口口 |----|
9
口口口口 |①---|
②口口① |----|
口口口口 |②---|
口口口口 |----|
10
口口口口 |①---|
口口口口 |----|
②口口① |②---|
口口口口 |----|
11
口口口口 |①---|
口口口口 |----|
口口口口 |②---|
②口口① |----|
12
口口口口 |①---|
口口口口 |----|
口口口口 |②---|
口②①口 |----|
13
口口口口 |①---|
①口口① |----|
口②②口 |②---|
口口口口 |----|
14
口口①② |①---|
口口口③ |②---|
口口口口 |③---|
口口口口 |----|
15
②①口口 |①---|
③口口口 |②---|
口口口口 |③---|
口口口口 |----|
16
口口口口 |①---|
口口口口 |②---|
口口①② |③---|
口口口③ |----|
17
口口口口 |①---|
口口口口 |②---|
②①口口 |③---|
③口口口 |----|
18
口口①② |①---|
口口口③ |②---|
口口口口 |③---|
口口口口 |----|
19
②①口口 |①---|
③口口口 |②---|
口口口口 |③---|
口口口口 |----|
20
口口口口 |①---|
口口口口 |②---|
口口①② |③---|
口口口③ |----|
21
口口口口 |①---|
口口口口 |②---|
②①口口 |③---|
③口口口 |----|
22
口口口口 |①---|
口口口口 |----|
口②②口 |②---|
口①①口 |----|
23
口②②口 |①---|
口①①口 |----|
口口口口 |②---|
口口口口 |----|
24
①口口① |①---|
②口口② |----|
口口口口 |②---|
口口口口 |----|
25
口口口口 |①---|
口口口口 |----|
①口口① |②---|
②口口② |----|
26
口口口口 |①---|
口口口口 |----|
口②②口 |②---|
口口①口 |----|
27
口口口口 |①---|
口②②口 |----|
口口口口 |②---|
口①口口 |----|
28
口口口口 |①---|
①口口① |----|
口②②口 |②---|
口口口口 |----|
29
①口口① |①---|
口口口口 |----|
口口口口 |----|
口口口口 |----|
30
口口口口 |①---|
口口口口 |----|
②口口② |②---|
口①①口 |----|
31
②③口口 |①---|
①④口口 |②---|
口口口口 |③---|
口口口口 |④---|
32
口口②③ |①---|
口口①④ |②---|
口口口口 |③---|
口口口口 |④---|
33
口口口口 |①---|
口口口口 |②---|
口口④① |③---|
口口③② |④---|
34
口口口口 |①---|
口口口口 |②---|
④①口口 |③---|
③②口口 |④---|
35
②③口口 |①---|
①④口口 |②---|
口口口口 |③---|
口口口口 |④---|
36
口口②③ |①---|
口口①④ |②---|
口口口口 |③---|
口口口口 |④---|
37
口口口口 |①---|
口①①口 |----|
口②②口 |②---|
口口口口 |----|
38
口①①口 |①---|
口口口口 |----|
口口口口 |②---|
口②②口 |----|
39
②③口口 |①---|
①④口口 |②---|
口口口口 |③---|
口口口口 |④---|
40
口口②③ |①---|
口口①④ |②---|
口口口口 |③---|
口口口口 |④---|
41
口口口口 |①---|
口口口口 |②---|
口口④① |③---|
口口③② |④---|
42
口口口口 |①---|
口口口口 |②---|
④①口口 |③---|
③②口口 |④---|
43
②③口口 |①---|
①④口口 |②---|
口口口口 |③---|
口口口口 |④---|
44
口口②③ |①---|
口口①④ |②---|
口口口口 |③---|
口口口口 |④---|
45
口口口口 |①---|
口①①口 |----|
口②②口 |②---|
口口口口 |----|
46
①口口① |①---|
口口口口 |----|
口口口口 |----|
口口口口 |----|
47
口口口口 |----|
口②①口 |----|
口口口口 |①---|
口口口口 |②---|
48
口①①口 |①---|
口②②口 |----|
口口口口 |②---|
口口口口 |----|
49
口口口口 |①---|
③③③③ |----|
口①①口 |②---|
口②②口 |--③-|

accuracy: 99.5%
最終更新:2024年09月08日 17:43