アットウィキロゴ
流星ダンスフロア
ORESAMA

ADVANCED

Level: 5
BPM: 133
Notes: 283

1
口口口口 |----|
口口口口 |----|
口口口口 |----|
口口口口 |----|
2
口口①口 |①---|
口①口口 |----|
口②口口 |②---|
口口口口 |----|
3
口口口口 |①---|
口口口口 |----|
口口①② |②---|
口口口口 |----|
4
①口口① |①---|
口口口口 |----|
②口口口 |②---|
口口口口 |----|
5
口口口口 |①---|
④②①③ |②---|
口口口口 |③---|
口口口口 |④---|
6
①口口① |①---|
口②②口 |----|
口③③口 |②--③|
口④④口 |--④-|
7
口口口口 |----|
口口口口 |----|
②口口① |①---|
口口口口 |②---|
8
①口口① |①---|
口②②口 |----|
口③③口 |②--③|
口④④口 |--④-|
9
口口口口 |----|
口口口口 |----|
口②①口 |①---|
口口口口 |②---|
10
①口口① |①---|
口②②口 |----|
口③③口 |②--③|
口④④口 |--④-|
11
口口口口 |----|
口口口口 |----|
②口口① |①---|
口口口口 |②---|
12
①口口④ |①---|
口②③口 |②---|
口口口口 |③---|
口口口口 |④---|
13
⑤口口⑤ |①--②|
④③②① |--③-|
④③②① |-④--|
口口口口 |⑤---|
14
口④口口 |①---|
口口口口 |②---|
口口③口 |③--④|
口②①口 |----|
15
口口④口 |①---|
口口口口 |②---|
口③口口 |③--④|
口①②口 |----|
16
口口口口 |①---|
口口口口 |②---|
②口口① |③---|
口④③口 |④---|
17
口口口口 |①-②-|
口②①口 |③-④-|
口④③口 |----|
口口口口 |----|
18
口④口口 |①---|
口口口口 |②---|
口口③口 |③--④|
口②①口 |----|
19
口口④口 |①---|
口口口口 |②---|
口③口口 |③--④|
口①②口 |----|
20
⑤①⑤口 |①---|
口口②口 |②---|
口③④口 |③---|
口口口口 |④-⑤-|
21
口⑥⑥口 |--①-|
①口①口 |--②-|
②③④⑤ |③-④-|
口口口口 |⑤-⑥-|
22
②口口① |----|
口④③口 |----|
口口口口 |①-②-|
口口口口 |③-④-|
23
口①①口 |--①-|
②口口② |--②-|
口③③口 |--③-|
口④④口 |--④-|
24
口口口口 |--①-|
⑥②①⑥ |②---|
口④③口 |③-④-|
口口⑤口 |⑤-⑥-|
25
口口④口 |--①-|
口①②口 |②-③-|
口③③口 |----|
口口口口 |--④-|
26
口⑥口⑤ |--①-|
口②④口 |②-③-|
口③①口 |④-⑤-|
口口口口 |--⑥-|
27
⑤口③口 |--①-|
口④②口 |②-③-|
口①口口 |④-⑤-|
口口⑥口 |--⑥-|
28
⑥①口⑥ |①-②-|
④口②④ |③-④-|
⑤③口⑤ |--⑤-|
口口口口 |--⑥-|
29
口口口口 |----|
口口口口 |----|
口口口口 |----|
口口口口 |----|
30
③口口③ |①---|
①口口① |②---|
口②②口 |③---|
口④口口 |--④-|
31
口口口口 |①-②-|
⑦⑤口⑤ |③-④-|
口①③口 |⑤---|
口⑥②④ |⑥-⑦-|
32
口口①口 |--①-|
口②口口 |②-③-|
口口③口 |----|
口口口④ |--④-|
33
口口口⑧ |①-②-|
⑤口⑦口 |③-④-|
口⑥③① |⑤-⑥-|
口④②口 |⑦-⑧-|
34
口口口口 |--①-|
口②口口 |②-③-|
③口①口 |----|
④口口口 |--④-|
35
口口口口 |①-②-|
口⑤⑤⑦ |③-④-|
①③⑥口 |⑤---|
口②④口 |⑥-⑦-|
36
口口②口 |--①-|
口③口口 |②-③-|
口①口口
口口口口

口⑤⑥口
口口口口
口口④口 |④---|
口口口口 |⑤-⑥-|
37
口口口① |①--②|
口口口口 |--③-|
口③口②
口口口口

⑤口口⑥
口口口口
④口口口 |④--⑤|
口口口口 |--⑥-|
38
⑤口口⑤ |①--②|
④③②① |--③-|
④③②① |-④--|
口⑥口口 |⑤-⑥-|
39
口口口⑦ |①-②-|
口⑤口⑤ |③-④-|
口①③⑥ |⑤---|
口口②④ |⑥-⑦-|
40
口①口口 |--①-|
口口②口 |②-③-|
口③口口 |----|
口口口④ |--④-|
41
口⑧⑧口 |①-②-|
口⑤⑦口 |③-④-|
口⑥③① |⑤-⑥-|
口④②口 |⑦-⑧-|
42
口口口口 |--①-|
①口口① |②-③-|
口②②口 |----|
④③③口 |--④-|
43
口口口口 |①-②-|
口⑤⑤⑦ |③-④-|
①③⑥口 |⑤---|
口②④口 |⑥-⑦-|
44
①口②口 |--①-|
口③口口 |②-③-|
口口口口
口口口口

口⑤⑥口
口口口口
口口④口 |④---|
口口口口 |⑤-⑥-|
45
口口口① |①--②|
口口口口 |--③-|
口③口②
口口口口

⑤口口⑥
口口口口
④口口口 |④--⑤|
口口口口 |--⑥-|
46
⑤⑤⑤⑤ |①--②|
④③②① |--③-|
④③②① |-④--|
口口口口 |⑤---|
47
口口口口 |----|
口②①口 |--①-|
口④③口 |②-③-|
口口口口 |④---|
48
口口口口 |①--②|
①口口① |--③-|
②口口② |----|
③口口③ |----|
49
⑤⑤⑤⑤ |①--②|
口①①口 |--③-|
④②②④ |--④-|
口③③口 |--⑤-|

accuracy: 99.5%
最終更新:2024年09月08日 17:43