アットウィキロゴ
50th Memorial Songs -The BEMANI History-
BEMANI Sound Team

ADVANCED

Level: 9.0
BPM: 136
Notes(hold): 573(23)

1
□□□□ |----|
□□□□ |----|
□□□□ |----|
□□□□ |----|
2
①□□□ |①---|
□□□□ |----|
□□□□ |---②③④|
□□□□ |⑤⑥⑦⑧⑨⑩|

⑧⑨⑩□
④⑤⑥⑦
□②③□
□□□□
3
□□□① |①---|
□□□□ |--②-|
②②□□ |----|
□□③③ |③---|
4
⑩⑪⑫⑬ |①---|
⑥⑦⑧⑨ |----|
②③④⑤ |②③④⑤⑥⑦|
①①□□ |⑧⑨⑩⑪⑫⑬|
5
□□□□ |①---|
□②②□ |--②-|
□□③③ |----|
①□□□ |③---|
6
③□□② |①---|
⑤□□④ |②③④⑤|
□□□□ |⑥⑦⑧⑨|
①①□□ |⑩⑪⑫⑬|

□□□□
□⑦⑥□
⑪⑨⑧⑩
⑬□□⑫
7
□□□⑥ |①---|
□②□⑤ |--②③|
□□③□ |④--⑤|
□④①□ |--⑥-|
8
①□□□ |①---|
□□□□ |②-③-|
□③□□ |④-⑤-|
□□□② |⑥-⑦-|

⑦④④□
□□□□
□□⑥□
⑤□□□
9
□①□① |--①-|
③④③□ |②-③-|
□□⑤□ |--④-|
□□②⑥ |⑤-⑥-|
10
⑤□③③ |①---|
④□□□ |②-③-|
②□□□ |④---|
①□□□ |⑤---|
11
⑨③②□ |①-②③|
□⑤④□ |④⑤⑥⑦|
□⑦⑥□ |⑧---|
①□⑧□ |⑨---|
12
□⑫②① |①②③④|
③④⑬□ |⑤⑥⑦⑧|
⑨⑭⑥⑤ |-⑨⑩⑪|
⑦⑧⑪⑩ |⑫⑬⑭-|
13
□⑨②① |①②③④|
③④⑩□ |⑤⑥⑦⑧|
□⑩⑥⑤ |-⑨-⑩|
⑦□⑧□ |----|
14
⑤□③③ |①---|
④□□□ |②-③-|
②□□□ |④---|
①□□□ |⑤---|
15
⑨③②□ |①-②③|
□⑤④□ |④⑤⑥⑦|
□⑦⑥□ |⑧---|
①□⑧□ |⑨---|
16
□⑫②① |①②③④|
③④⑬□ |⑤⑥⑦⑧|
⑨⑭⑥⑤ |-⑨⑩⑪|
⑦⑧⑪⑩ |⑫⑬⑭-|
17
②□□① |①②③④|
④□□③ |⑤⑥⑦⑧|
⑥□□⑤ |⑨⑩⑪⑫|
⑧□□⑦ |⑬---|

□⑫⑬⑬
□□⑪□
□⑩□□
□□⑨□
18
□□□□ |①---|
□□□□ |----|
①□□< |----|
□□□□ |----|
19
□⑤□□ |①-②-|
□□① |③-④-|
①③④□ |⑤---|
□①②□ |----|
20
□□□□ |①---|
□□□① |②---|
①□□< |--③-|
□□□□ |--④-|

□□②②
□③③□
□□④□
□□□□
21
□□□□ |①---|
□□① |②-③-|
①③□□ |----|
□②□□ |----|
22
□□□② |①---|
□□□① |----|
①□□< |--②-|
□□③□ |--③-|
23
⑤④□□ |①-②-|
□□① |③---|
①③□□ |④--⑤|
□②□□ |----|
24
□③③□ |①-②-|
□□□① |----|
①□□< |----|
□□②□ |--③-|
25
□□□□ |①---|
□□① |----|
①□□□ |--②-|
□□□□ |③-④-|

□□□□
④④□□
③□□□
②□□□
26
□②③⑧ |①-②③|
□⑨⑩① |④⑤⑥⑦|
⑪⑥⑦⑫ |-⑧⑨⑩|
⑬④⑤□ |⑪⑫⑬-|
27
□②③⑧ |-①②③|
□⑨⑩① |④⑤⑥⑦|
⑪⑥⑦⑫ |-⑧⑨⑩|
⑬④⑤□ |⑪⑫⑬-|
28
□②③⑧ |①-②③|
①⑨⑩□ |④⑤⑥⑦|
⑪⑥⑦⑫ |-⑧⑨⑩|
⑬④⑤□ |⑪⑫⑬-|
29
□②③⑧ |-①②③|
□⑨⑩① |④⑤⑥⑦|
⑪⑥⑦⑫ |-⑧⑨⑩|
⑬④⑤□ |⑪⑫⑬-|
30
□⑧⑦□ |①-②-|
□⑥⑤□ |③-④-|
□④③□ |⑤-⑥-|
□②①□ |⑦-⑧-|
31
⑧□□⑦ |①-②-|
⑥□□⑤ |③-④-|
④□□③ |⑤-⑥-|
②□□① |⑦-⑧-|
32
⑯⑧⑦⑮ |①②③④|
⑭⑥⑤⑬ |⑤⑥⑦⑧|
⑫④③⑪ |⑨⑩⑪⑫|
⑩②①⑨ |⑬⑭⑮⑯|
33
⑯⑧⑦⑮ |①②③④|
⑭⑥⑤⑬ |⑤⑥⑦⑧|
⑫④③⑪ |⑨⑩⑪⑫|
⑩②①⑨ |⑬⑭⑮⑯|
34
□③③□ |①--②|
⑧⑦⑥⑤ |--③-|
□①②□ |-④--|
④①②④ |⑤⑥⑦⑧|
35
□>□⑤ |①---|
□④□□ |②-③-|
□□③□ |④---|
□①①② |⑤---|
36
□□□① |①---|
□□□□ |--②-|
①□□< |③-④-|
□□□□ |⑤-⑥-|

□□□⑤
□□②□
②□□⑥
□④③□
37
□□□□ |①---|
①□<□ |--②-|
□□□□ |③---|
□③□< |④⑤⑥⑦|

⑦□□②
②□□⑥
⑤□□□
□④□④
38
□>□① |①---|
□□□□ |--②③|
□□□□ |④-⑤-|
□□□□ |⑥-⑦-|

⑤⑤□②
□②⑦⑦
□□③□
④④⑥⑥
39
□□⑤□ |①---|
□④□□ |②③④⑤|
①①③□ |--⑥-|
□②□□ |⑦-⑧-|

⑧□□□
⑦□□□
⑥□□□
□□□□
40
□⑤□⑧ |①---|
□□④⑦ |②③④⑤|
□③□⑥ |--⑥-|
□□②① |⑦-⑧-|
41
①□□□ |①-②③|
⑦③②⑦ |-④⑤-|
□⑧⑧□ |--⑥-|
⑥④⑤⑥ |⑦-⑧-|
42
④③②① |①②③④|
⑫⑪⑩⑨ |⑤⑥⑦⑧|
⑯⑮⑭⑬ |⑨⑩⑪⑫|
⑧⑦⑥⑤ |⑬⑭⑮⑯|
43
①①②② |①-②③|
④④□□ |-④⑤-|
□□□□ |--⑥-|
③③⑤⑤ |⑦-⑧-|

⑦□□⑦
□□□□
⑧⑥⑥⑧
□□□□
44
□□□□ |①②③④|
④③②① |⑤⑥⑦⑧|
□□□□ |⑨⑩⑪⑫|
⑧⑦⑥⑤ |⑬-⑭-|

⑫⑪⑩⑨
□□□⑬
□□⑭□
□□□□
45
□□□□ |①---|
①□□< |②---|
□⑥□< |③-④-|
□□□□ |⑤-⑥-|

□□□⑤
④□□③
□□□②
□□④□
46
□□□④ |①---|
□□□③ |②---|
□□□② |③---|
□□□① |④---|
47
①□<□ |①---|
□□□□ |②---|
□①□□ |③-④-|
□□□□ |⑤-⑥-|

④□□⑤
□□④③
⑥□<②
□□□□
48
⑤□□□ |①---|
□□□③ |②---|
④□⑥② |③-④-|
□□④① |⑤-⑥-|
49
□□□□ |①---|
□□□□ |②---|
□□□□ |③-④-|
□>□① |⑤-⑥-|

□>□⑥
③⑤□□
②□④□
□□□④
50
□□□③ |①---|
□□□⑤ |②-③-|
③□<④ |④---|
②①□□ |⑤---|
51
①①□□ |①--②|
□②②□ |--③-|
①□③③ |④---|
□□□□ |⑤---|

□⑤□⑤
□□□□
□□□□
④□□□
52
⑫⑧⑦⑪ |①-②-|
⑩⑥⑤⑨ |③-④-|
④④③③ |⑤⑥⑦⑧|
②②①① |⑨⑩⑪⑫|
53
□□□□ |①--②③④|
□□□□ |⑤-⑥-|
②③④⑤ |⑦--⑧⑨⑩|
⑥□□① |⑪-⑫-|

□⑦□□
⑪⑩⑨⑧
□□⑫□
□□□□
54
①□□< |①---|
□□□□ |----|
□□□□ |②-③-|
□□□□ |④-⑤-|

②⑤□□
□□④□
□③□□
□□②□
55
②□⑧① |①--②③④|
③⑦⑨□ |⑤-⑥-|
④⑫⑩⑥ |⑦--⑧⑨⑩|
⑤□⑪□ |⑪-⑫-|
56
□□① |①---|
□□□□ |----|
□□□□ |②-③-|
□□□□ |④-⑤-|

□□⑤②
□④□□
□□③□
□②□□
57
①①□□ |①-②-|
□④③□ |-③④⑤|
②②□□ |⑥-⑦⑧|
□□⑤□ |---⑨|

□⑨⑧⑦
⑨□□□
□□□□
□⑥□□
58
⑥□□□ |-①②③|
□②①□ |④⑤-⑥|
□④③□ |----|
□□⑤□ |----|
59
⑤⑤⑤⑤ |①-②-|
⑧⑥⑦□ |③-④-|
④④③③ |⑤-⑥⑦|
②②①① |---⑧|
60
⑤③□④ |-①②③|
□□□□ |④⑤⑥⑦|
⑦□②⑥ |⑧⑨⑩⑪|
□①□□ |⑫⑬⑭⑮|

□□□□
⑬⑨⑧⑫
□□□□
⑮⑪⑩⑭
61
□□① |①---|
□□□□ |----|
□□□□ |----|
□②□□ |②---|
62
□□□□ |①---|
①□□□ |--②-|
□②□□ |----|
□□③□ |③---|
63
□□□□ |①---|
□①□□ |----|
□□□□ |----|
□□□□ |----|
64
□□□□ |①---|
□□①□ |--②-|
□②□□ |----|
□□□□ |----|
65
①□□① |①---|
□□□□ |----|
□□□□ |----|
□□□□ |----|
最終更新:2021年06月21日 03:02