アットウィキロゴ
50th Memorial Songs -The BEMANI History-
BEMANI Sound Team

EXTREME

Level: 10.1
BPM: 136
Notes(hold): 696(31)

1
口口口口 |----|
口口口口 |----|
口口②口 |----|
口①口口 |----①②|
2
口⑩⑧⑤ |①---|
⑨⑦④① |----|
⑥③口口 |---②③④|
②口口口 |⑤⑥⑦⑧⑨⑩|
3
①③口口 |①---|
③口口口 |--②-|
口口口② |----|
口口②口 |③---|
4
口口口口 |①---|
口口①口 |----|
口①口口
口口口口

口⑬⑪⑧
⑫⑩⑦④
⑨⑥③口 |②③④⑤⑥⑦|
⑤②口口 |⑧⑨⑩⑪⑫⑬|
5
①口口口 |①---|
口口口口 |--②-|
口③②口 |----|
③口口② |③---|
6
口①①口 |①---|
⑤口口② |②③④⑤⑥⑦|
⑥口口③
⑦口口④

⑯⑮⑭口
口⑪⑧⑰
口⑫⑨⑱ |⑧⑨⑩⑪⑫⑬|
口⑬⑩⑲ |⑭⑮⑯⑰⑱⑲|
7
④口口⑤ |①---|
①⑥⑥口 |--②③|
④口口⑤ |④--⑤|
口②③口 |--⑥-|
8
④⑦①口 |①---|
口口口① |②-③-|
⑥③口口 |④-⑤-|
②⑤④④ |⑥-⑦-|
9
④⑧口① |①-②-|
口口口⑤ |③-④-|
⑦③⑤① |⑤-⑥-|
②⑥口⑦ |⑦-⑧-|
10
①口③① |①---|
②口口③ |②-③-|
④口口口 |④---|
⑤口口口 |⑤---|
11
①口口② |①-②③|
口③口④ |④⑤⑥⑦|
口⑤口⑥ |⑧---|
⑨⑦口⑧ |⑨---|
12
口③口① |①②③④|
⑩⑧⑤⑫ |⑤⑥⑦⑧|
⑭④⑨② |-⑨⑩⑪|
⑪⑦⑥⑬ |⑫⑬⑭-|
13
口③口① |①②③④|
口⑧⑤口 |⑤⑥⑦⑧|
口④口②
口⑦⑥口

口口⑨口
⑨口口口
口口口⑩ |-⑨-⑩|
⑪口口⑩ |⑪---|
14
①口⑤口 |①-②-|
③④口⑤ |③④⑤⑥|
⑥口口口
口口②口

⑩口口口
口口口口
口⑦口口 |⑦-⑧⑨|
⑧⑨⑪口 |-⑩-⑪|
15
⑨口口② |①-②③|
①③口④ |④⑤⑥⑦|
⑩⑤口⑥ |⑧-⑨⑩|
口⑦口⑧

口口⑪口
⑬口口⑭
口口⑫口
⑮口口口 |--⑪-⑫⑬⑭⑮|
16
口③口① |①②③④|
⑩⑧⑤⑫ |⑤⑥⑦⑧|
⑭④⑨② |-⑨⑩⑪|
⑪⑦⑥⑬ |⑫⑬⑭-|
17
①口⑦口 |①②③④|
⑥③口口 |⑤⑥⑦⑧|
口口⑧②
口④⑤口

⑬⑬口⑫
口⑬⑪口
口⑩口口 |⑨⑩⑪⑫|
⑨口口口 |⑬---|
18
口口口口 |①---|
口③②口 |②---|
①②③口 |--③-|
>━━① |----|
19
①━━< |①-②-|
口口③① |③-④-|
口②口口
④口口①

口口口⑥
口口口⑥
口口⑤口 |⑤---|
口口口口 |⑥---|
20
①②口口 |①---|
②④③口 |②---|
口③④口 |--③-|
>━━① |--④-|
21
①━━< |①-②-|
口口口①
①口口口
口②②①

口口⑥④
口口③口 |③-④-|
口③⑤④ |--⑤-|
口口口口 |--⑥-|
22
①⑤口③ |①-②-|
④口④口 |③-④-|
⑥②口口 |--⑤-|
>━━① |--⑥-|
23
①━━< |①-②-|
口口口②
口口口口
口口口①

口口口④
口⑤⑥口 |③-④-|
口⑥⑤口 |⑤--⑥|
口③口口 |----|
24
①口口口 |①-②-|
口口口口 |----|
②━<口 |----|
>━━①

口口口口
口口③口
③口口口
口口口口 |--③-|
25
①━━< |①-②-|
口②口口 |----|
口口②口
口口口①

口③③口
口⑤⑤口
口口口口 |--③-|
口④④口 |④-⑤-|
26
①口⑤① |①-②③|
口口口④ |④⑤⑥⑦|
⑥口③⑦
口口口②

⑩⑧口⑪
口⑨⑫口
口⑬口口 |-⑧⑨⑩|
口口口口 |⑪⑫⑬-|
27
⑩⑧⑤⑪ |-①②③|
口⑨⑫④ |④⑤⑥⑦|
⑥⑬③⑦ |-⑧⑨⑩|
口①口② |⑪⑫⑬-|
28
⑩⑧⑤⑪ |①-②③|
①⑨⑫④ |④⑤⑥⑦|
⑥⑬③⑦ |-⑧⑨⑩|
口口口② |⑪⑫⑬-|
29
⑩⑧⑤⑪ |-①②③|
口⑨⑫④ |④⑤⑥⑦|
⑥⑬③⑦ |-⑧⑨⑩|
口①口② |⑪⑫⑬-|
30
⑧口口⑦ |①-②-|
⑥口口⑤ |③-④-|
④口口③ |⑤-⑥-|
②口口① |⑦-⑧-|
31
口⑧⑦口 |①-②-|
口⑥⑤口 |③-④-|
口④③口 |⑤-⑥-|
口②①口 |⑦-⑧-|
32
⑧⑯⑮⑦ |①②③④|
⑥⑭⑬⑤ |⑤⑥⑦⑧|
④⑫⑪③ |⑨⑩⑪⑫|
②⑩⑨① |⑬⑭⑮⑯|
33
口口口③ |①②③④|
④口⑦口 |⑤⑥⑦⑧|
⑥⑧口①
②口口⑤

⑩口⑪口
口⑭口口
口口口⑬ |⑨⑩⑪⑫|
⑯⑫⑨⑮ |⑬⑭⑮⑯|
34
口①口① |①-②③|
③口③口 |-④⑤-|
⑤②⑤口
口④口口

⑦口⑦⑧
口⑥口⑨
口口口⑩ |⑥⑦--|
口口口⑪ |⑧⑨⑩⑪|
35
口口口口 |①---|
①━━<
口口口口
口口口口

口口口口
②>━④ |②-③-|
口口③口 |④---|
口口②口

>━⑤口
口口口⑤
口口口口
口口口口 |⑤---|
36
口口①口 |①---|
口口口口
口>━①
口口口口

口口口口
②⑦口口 |--②③|
口③⑥② |④-⑤-|
⑤口④口 |⑥-⑦-|
37
口>━① |①---|
口口口口
口口口口
口口口口

②口口②
口口口口 |--②-|
口口口口 |③---|
口>━③

口口⑦口
口⑥口口
口口⑤口
口④口④ |④⑤⑥⑦|

38
口①━< |①---|
口口口口
口口口口
口口口口

口②口口
口口②口 |--②③|
口③口口 |④-|
④━━<

口口口口
口口口口
>━━⑤ |⑤-|
⑤口口口

口口口口
⑥━━<
口口口⑥
口口口口 |⑥-|

>━━⑦
⑦口口口
口口口口
口口口口 |⑦-|
39
①⑤口① |①---|
⑨口④口 |②③④⑤|
⑧③口口 |⑥-⑦-|
⑦口②⑥ |⑧-⑨-|
40
①━━< |①---|
口口口口
口口口口
口口口口

②⑤口口
⑨口④口 |②③④⑤|
⑧③口口 |⑥-⑦-|
⑦口②⑥ |⑧-⑨-|
41
②②口① |①-②③|
口③③口 |-④⑤-|
口⑤⑤口
④④口口

口口口⑦
口口口口
⑧口口口 |--⑥-|
口口口⑥ |⑦-⑧-|
42
④⑪②⑨ |①②③④|
⑫③⑩① |⑤⑥⑦⑧|
⑯⑦⑭⑤ |⑨⑩⑪⑫|
⑧⑮⑥⑬ |⑬⑭⑮⑯|
43
①口①② |①-②③|
口③③口 |-④⑤-|
口⑤口口
④口⑤口

口⑦口⑦
口口口口
⑧口口⑥ |--⑥-|
口⑧口⑥ |⑦-⑧-|
44
④口②口 |①②③④|
口③口① |⑤⑥⑦⑧|
口⑦口⑤
⑧口⑥口

口⑪⑬⑨
⑫⑭⑩⑬
口口⑭口 |⑨⑩⑪⑫|
口口口口 |⑬-⑭-|
45
口④口② |①-②-|
口口口口 |③-④-|
①口口③
口①━<

>━━⑧
口⑦口⑥
⑥口口口 |⑤-⑥-|
口⑥⑦⑤ |⑦-⑧-|
46
④⑧口口 |①-②-|
②⑥口口 |③-④-|
口③口口 |⑤-⑥-|
①⑦⑤口 |⑦-⑧-|
47
口口口① |①-②-|
①━<口
口口口口
口口口②

口口口口
⑥⑥③⑤ |③-④-|
口口⑥口 |⑤-⑥-|
口口④口

口口⑦口
口口口口
口>━⑧
⑦口口口 |⑦-⑧-|
48
②口口口 |①-②-|
④口①口 |③-④-|
口口口口
口③口口

⑦口口⑦
口⑥⑧口
⑤⑧口⑥ |⑤-⑥-|
口口口口 |⑦-⑧-|
49
口②口口 |①-②-|
口口口口 |③-④-|
口口④口
①━<③

口>━⑧
⑦口⑦⑤
口⑥口⑥ |⑤-⑥-|
⑥口口口 |⑦-⑧-|
50
②口口④ |①-②-|
口③口口 |③-④-|
④━<口
口口①口

口口口口
口口⑥⑧
口口口口 |⑤-⑥-|
口口⑦⑤ |⑦-⑧-|
51
④④①① |①--②|
口③口口 |--③-|
①口③口 |----|
②②口口 |④---|
52
口口口④ |①-②-|
③口口口 |③-④-|
口口口②
①口口口

⑤口口口
口口⑥⑧
⑨口⑫⑩ |⑤⑥⑦⑧|
⑪⑦口口 |⑨⑩⑪⑫|
53
口①②③ |①--②③④|
⑦⑤④⑫ |⑤-⑥-|
口①⑧⑨ |⑦--⑧⑨⑩|
⑦⑪⑩⑥ |⑪-⑫-|
54
①━━< |①-②-|
口④③口 |③-④-|
口②口口
口口口口

⑤口口口
⑧口口⑦
⑫口口⑪ |⑤⑥⑦⑧|
⑥⑩⑨⑤ |⑨⑩⑪⑫|
55
③②①口 |①--②③④|
⑫④⑤⑦ |⑤-⑥-|
⑨⑧①口 |⑦--⑧⑨⑩|
⑥⑩⑪⑦ |⑪-⑫-|
56
>━━① |①-②-|
口②口口 |③-④-|
口④③口
口口口口

口⑪⑫⑤
⑦口口⑧
口口口口 |⑤⑥⑦⑧|
⑤⑨⑩⑥ |⑨⑩⑪⑫|
57
①口口② |①-②-|
口口口④ |③④⑤⑥|
①口⑤②
③口口⑥

⑧⑫口⑩
⑫⑨⑦口
口口口⑪ |⑦-⑧⑨|
口口口口 |⑩-⑪⑫|
58
⑦口⑥口 |①②③④|
口⑦⑥① |⑤⑥-⑦|
⑤②口口 |⑧-⑨-|
③④⑧⑨

口口口⑪
口口口口
口口口口
⑩口口口 |⑩-⑪-|
59
口口口口 |①-②-|
口③④口 |③-④-|
①②③④
口①②口

⑥⑩⑤⑩
⑦口口⑤
⑨口口口 |⑤-⑥⑦|
口口⑧口 |⑧-⑨⑩|
60
④口口口 |-①②③|
口口③⑤ |④⑤⑥⑦|
口②⑥口
①⑦口口

口口⑧⑫
⑬⑨⑭口
口⑮口⑩ |⑧⑨⑩⑪|
⑪口口口 |⑫⑬⑭⑮|
61
口口口口 |①---|
口口口口 |----|
口②口口 |----|
>━━① |②---|
62
①口①口 |①---|
口②口② |--②-|
③口③口 |----|
口口口口 |③---|
63
口口口口 |①---|
口①口口 |----|
口口口口 |----|
口口口口 |----|
64
口①口① |①---|
②④②口 |--②-|
口③口口 |----|
口口口口 |----③④|
65
口①口口 |①---|
口口口口 |----|
口口口口 |----|
口口口① |----|
最終更新:2019年11月25日 18:57