アットウィキロゴ
50th Memorial Songs -二人の時 ~under the cherry blossoms~-
BEMANI Sound Team

BASIC

Level: 3
BPM: 160
Notes: 281

1
口口口口 |----|
口口口口 |----|
口口口口 |----|
口口口口 |----|
2
口口口口 |----|
口口口口 |----|
口口口口 |----|
口口口口 |----|
3
口口口口 |①---|
口口口口 |----|
口②①口 |②---|
口口口口 |----|
4
口口口口 |①---|
②口口① |----|
口口口口 |②---|
口口口口 |----|
5
②口口① |①---|
口口口口 |----|
口口口口 |②---|
口口口口 |----|
6
口口口口 |①---|
口①①口 |----|
口①①口 |----|
口口口口 |----|
7
口口口① |①---|
口口②口 |----|
口口口口 |②---|
口口口口 |----|
8
口①口口 |①---|
②口口口 |----|
口口口口 |②---|
口口口口 |----|
9
①口口口 |①---|
口②口口 |----|
口口口口 |②---|
口口口口 |----|
10
口口①口 |①---|
口口口② |----|
口口口口 |②---|
口口口口 |----|
11
口口②口 |①---|
口口①口 |----|
口口口口 |②---|
口口口口 |----|
12
口②口口 |①---|
口①口口 |----|
口口口口 |②---|
口口口口 |----|
13
口口口口 |①---|
口②②口 |----|
口①①口 |②---|
口口口口 |----|
14
①口口① |①---|
口口口口 |----|
口口口口 |----|
口口口口 |----|
15
口口口① |①---|
口口②口 |----|
口口口口 |②---|
口口口口 |----|
16
口①口口 |①---|
②口口口 |----|
口口口口 |②---|
口口口口 |----|
17
①口口口 |①---|
口②口口 |----|
口口口口 |②---|
口口口口 |----|
18
口口①口 |①---|
口口口② |----|
口口口口 |②---|
口口口口 |----|
19
口口②口 |①---|
口口①口 |----|
口口口口 |②---|
口口口口 |----|
20
口②口口 |①---|
口①口口 |----|
口口口口 |②---|
口口口口 |----|
21
口口口口 |①---|
口②②口 |----|
口①①口 |②---|
口口口口 |----|
22
①口口① |①---|
口口口口 |----|
口口口口 |----|
口口口口 |----|
23
口口口① |①---|
口口口② |②---|
口口口③ |③---|
口口口④ |④---|
24
①口口口 |①---|
②口口口 |②---|
③口口口 |③---|
④口口口 |④---|
25
口口口口 |①---|
口②口口 |----|
口口①口 |②---|
口口口口 |----|
26
②口口① |①---|
口口口口 |----|
口口口口 |②---|
口口口口 |----|
27
口口口① |①---|
口口口② |②---|
口口口③ |③---|
口口口④ |④---|
28
①口口口 |①---|
②口口口 |②---|
③口口口 |③---|
④口口口 |④---|
29
口口口口 |①---|
口口口口 |----|
口①①口 |----|
口口口口 |----|
30
口②②口 |①---|
口①①口 |----|
口口口口 |②---|
口口口口 |----|
31
口口口① |①---|
口口口② |②---|
口口口③ |③---|
口口口④ |④---|
32
①口口口 |①---|
②口口口 |②---|
③口口口 |③---|
④口口口 |④---|
33
口口口口 |①---|
口②口口 |----|
口口①口 |②---|
口口口口 |----|
34
②口口① |①---|
口口口口 |----|
口口口口 |②---|
口口口口 |----|
35
口口①口 |①---|
口口②口 |②---|
口口③口 |③---|
口口④口 |④---|
36
口①口口 |①---|
口②口口 |②---|
口③口口 |③---|
口④口口 |④---|
37
口口口口 |①---|
①口口① |----|
口②②口 |②---|
口口口口 |----|
38
口口口口 |----|
口口口口 |----|
口口口口 |----|
口口口口 |----|
39
口口口① |①---|
口口口① |----|
口口口口 |----|
口口口口 |----|
40
口口口口 |①---|
口口①口 |----|
口口②口 |②---|
口口口口 |----|
41
①口口口 |①---|
①口口口 |----|
口口口口 |----|
口口口口 |----|
42
口口口口 |①---|
口①口口 |----|
口②口口 |②---|
口口口口 |----|
43
口口①口 |①---|
口口②口 |----|
口口口口 |②---|
口口口口 |----|
44
口①口口 |①---|
口②口口 |----|
口口口口 |②---|
口口口口 |----|
45
口口口① |①---|
②口口口 |----|
口口口口 |②---|
口口口口 |----|
46
口口口口 |①---|
口口口口 |----|
口口口① |②---|
②口口口 |----|
47
口口口④ |①---|
口口口③ |②---|
口口口② |③---|
口口口① |④---|
48
口④口口 |①---|
口③口口 |②---|
口②口口 |③---|
口①口口 |④---|
49
口口④口 |①---|
口口③口 |②---|
口口②口 |③---|
口口①口 |④---|
50
④口口口 |①---|
③口口口 |②---|
②口口口 |③---|
①口口口 |④---|
51
口口口④ |①---|
口口口③ |②---|
口口口② |③---|
口口口① |④---|
52
④口口口 |①---|
③口口口 |②---|
②口口口 |③---|
①口口口 |④---|
53
口④④口 |①---|
口③③口 |②---|
口②②口 |③---|
口①①口 |④---|
54
④口口④ |①---|
③口口③ |②---|
②口口② |③---|
①口口① |④---|
55
口④口④ |①---|
口③口③ |②---|
口②口② |③---|
口①口① |④---|
56
④口④口 |①---|
③口③口 |②---|
②口②口 |③---|
①口①口 |④---|
57
口④④口 |①---|
口③③口 |②---|
口②②口 |③---|
口①①口 |④---|
58
④口口④ |①---|
③口口③ |②---|
②口口② |③---|
①口口① |④---|
59
口④口④ |①---|
口③口③ |②---|
口②口② |③---|
口①口① |④---|
60
④口④口 |①---|
③口③口 |②---|
②口②口 |③---|
①口①口 |④---|
61
口④④口 |①---|
口③③口 |②---|
口②②口 |③---|
口①①口 |④---|
62
④口口④ |①---|
③口口③ |②---|
②口口② |③---|
①口口① |④---|
63
口口口口 |----|
口口口① |①---|
口口口② |②---|
口口口③ |③---|
64
①口口口 |①---|
②口口口 |②---|
③口口口 |③---|
④口口口 |④---|
65
口口口口 |①---|
口②口口 |----|
口口①口 |②---|
口口口口 |----|
66
②口口① |①---|
口口口口 |----|
口口口口 |②---|
口口口口 |----|
67
口口口① |①---|
口口口② |②---|
口口口③ |③---|
口口口④ |④---|
68
①口口口 |①---|
②口口口 |②---|
③口口口 |③---|
④口口口 |④---|
69
口口口口 |①---|
口口口口 |----|
口①①口 |----|
口口口口 |----|
70
口②②口 |①---|
口①①口 |----|
口口口口 |②---|
口口口口 |----|
71
口口口① |①---|
口口口② |②---|
口口口③ |③---|
口口口④ |④---|
72
①口口口 |①---|
②口口口 |②---|
③口口口 |③---|
④口口口 |④---|
73
口口口口 |①---|
口②口口 |----|
口口①口 |②---|
口口口口 |----|
74
②口口① |①---|
口口口口 |----|
口口口口 |②---|
口口口口 |----|
75
口口①口 |①---|
口口②口 |②---|
口口③口 |③---|
口口④口 |④---|
76
口①口口 |①---|
口②口口 |②---|
口③口口 |③---|
口④口口 |④---|
77
①口口① |①---|
①②②① |----|
口口口口 |②---|
口口口口 |----|
78
口口口口 |----|
口口口口 |----|
口口口口 |----|
口口口口 |----|
79
口口口口 |----|
②口口① |①---|
口②①口 |--②-|
口口口口 |----|
80
口口口口 |①---|
②③③① |--②-|
口②①口 |----|
口口口口 |--③-|
81
口口口口 |----|
口口口口 |----|
口口口口 |----|
口口口口 |----|
82
口口口口 |----|
口①①口 |--①-|
口①①口 |----|
口口口口 |----|

accuracy: 100%
最終更新:2022年03月26日 05:54