アットウィキロゴ
50th Memorial Songs -二人の時 ~under the cherry blossoms~-
BEMANI Sound Team

ADVANCED

Level: 6
BPM: 160
Notes: 416

1
口口口口 |----|
口口口口 |----|
口口口口 |----|
口口口口 |----|
2
口口口口 |----|
口口口口 |----|
口口口口 |----|
口口口口 |----|
3
口口①口 |①---|
口②口口 |②---|
口口③口 |③---|
口④口口 |④---|
4
口④口口 |①---|
口口③口 |②---|
口②口口 |③---|
口口①口 |④---|
5
③③③③ |①---|
①口口① |--②-|
口②②口 |----|
口口口口 |--③-|
6
口口口口 |----|
口口口口 |----|
口口口口 |----|
口口口口 |----|
7
口口口口 |----|
③口口口 |①---|
②口口口 |②---|
①口口口 |③---|
8
口口口口 |①---|
口①口口 |②---|
口②口口 |③---|
口③④口 |④---|
9
口①口① |①---|
口③口③ |--②-|
口口②口 |③---|
口口④口 |--④-|
10
口口口口 |①---|
口口口口 |----|
口①口①
口口口口

口口口口
口口②口
口③口口 |②---|
口口口口 |③---|
11
口口⑤口 |①---|
口口口④ |②---|
口口口③ |③---|
口口①② |④-⑤-|
12
口口口口 |①---|
口口①口 |②---|
口口②口 |③---|
口④③口 |④---|
13
①口①口 |①---|
③口③口 |--②-|
口②口口 |③---|
口④口口 |--④-|
14
口口口口 |①---|
口口口口 |----|
①口①口
口口口口

口口口口
口④口口
口口③口 |--②-|
口②口口 |③-④-|
15
口口①口 |①---|
④口口口 |②---|
③口口口 |③---|
②口口口 |④---|
16
口口口口 |①---|
口①口口 |②---|
口②口口 |③---|
口③④口 |④---|
17
口①口① |①---|
口③口③ |--②-|
口口②口 |③---|
口口④口 |--④-|
18
口口口口 |①---|
口口口口 |----|
口①口①
口口口口

口口口口
口口②口
口③口口 |②---|
口口口口 |③---|
19
口口⑤口 |①---|
口口口④ |②---|
口口口③ |③---|
口口①② |④-⑤-|
20
口口口口 |①---|
口口①口 |②---|
口口②口 |③---|
口④③口 |④---|
21
①口①口 |①---|
③口③口 |--②-|
口②口口 |③---|
口④口口 |--④-|
22
口口口口 |①---|
口口口口 |----|
①口①口 |----|
口口口口 |----|
23
③口口③ |----|
①口口① |①---|
口口口口 |②---|
口②②口 |③---|
24
口②①口 |①---|
口①②口 |②---|
口④③口 |③---|
口③④口 |④---|
25
②口口① |①---|
口口口口 |--②-|
①口口② |----|
口口口口 |----|
26
口口口口 |①---|
口口口口 |②---|
口④③口 |③---|
口②①口 |④---|
27
①口口① |①---|
②口口② |②---|
口口口口 |③---|
③④④③ |④---|
28
口③③口 |①---|
口②①口 |②---|
口①②口 |③---|
口④④口 |④---|
29
①口口① |①---|
①②②① |----|
口③③口 |②---|
口口口口 |③---|
30
口口口口 |①---|
口口口口 |----|
口口口口 |----|
口①①口 |----|
31
③口口③ |----|
①口口① |①---|
口口口口 |②---|
口②②口 |③---|
32
口②①口 |①---|
口①②口 |②---|
口④④口 |③---|
口③③口 |④---|
33
口②②① |①---|
口③③① |----|
口④④口 |②--③|
口口口口 |-④--|
34
①口口口 |①---|
①口口口 |----|
口口口口 |----|
口口口口 |----|
35
口口口口 |----|
①口口① |①---|
②口口② |②---|
口③③口 |③---|
36
口②①口 |①---|
口①②口 |②---|
口③③口 |③---|
口④④口 |④---|
37
口②①口 |①---|
②②①① |----|
口口口口 |②---|
口口口口 |----|
38
②③③① |①---|
口②①口 |②---|
口口口口 |③---|
口口口口 |----|
39
口口口④ |①---|
口口③口 |----|
口②口口 |--②-|
口①①口 |③-④-|
40
口①①口 |①---|
②口口② |--②-|
③口口③ |----|
口口口口 |③---|
41
口口口口 |①---|
口口口口 |----|
口口口口 |----|
口①①② |--②-|
42
④③③④ |①-②-|
口②口口 |--③-|
口口①口 |--④-|
口口口口 |----|
43
口口口口 |①---|
口口口口 |--②-|
①③③① |----|
口②②口 |③---|
44
口口口口 |①---|
①③③① |--②-|
②口口② |----|
口口口口 |③---|
45
口①①① |①---|
②②②口 |----|
口口口口 |②---|
口口口口 |----|
46
口口口口 |①---|
口口口口 |----|
口①①① |②---|
②②②口 |----|
47
口口口口 |①---|
口口口口 |----|
口口②口 |②---|
口口口① |----|
48
④②口口 |①---|
③①口口 |②---|
口口口口 |③---|
口口口口 |④---|
49
口口口口 |①---|
口口口口 |----|
口②口口 |②---|
①口口口 |----|
50
口口②④ |①---|
口口①③ |②---|
口口口口 |③---|
口口口口 |④---|
51
口口口口 |①---|
口口口口 |----|
口口②口 |②---|
口口口① |----|
52
④②口口 |①---|
③①口口 |②---|
口口口口 |③---|
口口口口 |④---|
53
口口口口 |①---|
口口口口 |----|
口②口口 |②---|
①口口口 |----|
54
口口②④ |①---|
口口①③ |②---|
口口口口 |③---|
口口口口 |④---|
55
口口口口 |①---|
口口口口 |②---|
口口④② |③---|
口口③① |④---|
56
④②口口 |①---|
③①口口 |②---|
口口口口 |③---|
口口口口 |④---|
57
口口口口 |①---|
口口口口 |②---|
②④口口 |③---|
①③口口 |④---|
58
口口②④ |①---|
口口①③ |②---|
口口口口 |③---|
口口口口 |④---|
59
口口口口 |①---|
口口口口 |②---|
口口④② |③---|
口口③① |④---|
60
④②口口 |①---|
③①口口 |②---|
口口口口 |③---|
口口口口 |④---|
61
口口口口 |①---|
口口口口 |②---|
②④口口 |③---|
①③口口 |④---|
62
口口②④ |①---|
口口①③ |②---|
口口口口 |③---|
口口口口 |④---|
63
④口口④ |①---|
②口口② |②---|
口①①口 |③---|
口③③口 |④---|
64
口②①口 |①---|
口①②口 |②---|
口④③口 |③---|
口③④口 |④---|
65
②②①① |①---|
口口口口 |--②-|
①口口② |----|
口口口口 |----|
66
口口口口 |①---|
口口口口 |----|
口②②口 |②---|
口①①口 |----|
67
口①①口 |①---|
②口口② |②---|
③口口③ |③---|
口④④口 |④---|
68
口③③口 |①---|
口②①口 |②---|
口①②口 |③---|
口④④口 |④---|
69
①口口① |①---|
①②②① |----|
口③③口 |②---|
口口口口 |③---|
70
口口口口 |①---|
口口口口 |----|
口口口口 |----|
口①①口 |----|
71
③口口③ |----|
①口口① |①---|
口口口口 |②---|
口②②口 |③---|
72
口②①口 |①---|
口①②口 |②---|
口④④口 |③---|
口③③口 |④---|
73
口②②① |①---|
口③③① |----|
口④④口 |②--③|
口口口口 |-④--|
74
①口口口 |①---|
①口口口 |----|
口口口口 |----|
口口口口 |----|
75
口口口口 |----|
①口口① |①---|
②③③② |②---|
口口口口 |③---|
76
口②①口 |①---|
口①②口 |②---|
口④④口 |③---|
口③③口 |④---|
77
口②①口 |①---|
②②①① |----|
口口口口 |②---|
口口口口 |----|
78
②③③① |①---|
口②①口 |②---|
口口口口 |③---|
口口口口 |----|
79
口口②口 |----|
口①①② |①---|
②①①口 |--②-|
口②口口 |----|
80
口②口口 |①---|
②①①口 |--②-|
口①①②
口口②口

④口口④
口③③口
口③③口 |----|
口口口口 |③-④-|
81
口口口口 |----|
口口口口 |----|
口口口口 |----|
口口口口 |----|
82
口①①口 |----|
①①①① |①---|
口口口口 |----|
口口口口 |----|

accuracy: 100%
最終更新:2022年03月26日 05:48