アットウィキロゴ
50th Memorial Songs -二人の時 ~under the cherry blossoms~-
BEMANI Sound Team

EXTREME

Level: 9.1
BPM: 160
Notes: 725

1
口口口口 |----|
口口口口 |----|
口口口口 |----|
口口口口 |----|
2
口口口口 |----|
口口口口 |----|
口口口口 |----|
口口口口 |----|
3
⑥⑧①① |①-②-|
⑧⑥口⑦ |③-④-|
④口⑤口 |⑤-⑥-|
②④③口 |⑦-⑧-|
4
⑥⑧①⑦ |①-②-|
⑧⑥口口 |③-④-|
④口口⑤ |⑤-⑥-|
②④口③ |⑦-⑧-|
5
口口口口 |①②③④|
口⑦①⑥ |⑤-⑥⑦|
口②③口
口④⑤口

⑪口⑧⑪
口口口口
⑨⑪⑪⑨ |⑧-⑨-|
⑩口口⑩ |⑩-⑪-|
6
口口口口 |----|
口口口口 |----|
口口口口 |①---|
①②②① |②---|
7
①口口① |①---|
口口口口 |②---|
口口②②
口口口口

口口④④
口口③③
口口口口 |③---|
口口口口 |④---|
8
②①口口 |①---|
①②口口 |②---|
③③口口 |③---|
④④口口 |④---|
9
口①口① |①---|
口④②③ |--②-|
③②④口 |③---|
口口口口 |--④-|
10
口③口口 |①---|
①口④口 |②---|
口⑤⑥① |③-④-|
口口②口 |⑤-⑥-|
11
①口口① |①---|
口口口口 |②---|
口口口口
②②口口

④⑤口口
④⑤口口
③③口口 |③---|
口口口口 |④-⑤-|
12
口口①② |①---|
口口②① |②---|
口口④④ |③---|
口口③③ |④---|
13
①口①口 |①---|
③④②③ |--②-|
口②④口 |③---|
口口口口 |--④-|
14
①口口① |①-②-|
口⑦④口 |③-④-|
⑥③口口 |--⑤-|
口⑤②口 |⑥-⑦-|
15
①口④④ |①---|
口口③③ |②---|
口口②② |③---|
口口口口 |④---|
16
②①口口 |①---|
①②口口 |②---|
③③口口 |③---|
④④口口 |④---|
17
口口口口 |①---|
口①②口 |--②-|
口②①口
口口口口

口口口口
口④口③
③口④口 |③---|
口口口口 |--④-|
18
口③口口 |①---|
①口④口 |②---|
口⑤⑥① |③-④-|
口口②口 |⑤-⑥-|
19
①口口① |①---|
口口口口 |②---|
口口口口
②②口口

④⑤口口
④⑤口口
③③口口 |③---|
口口口口 |④-⑤-|
20
口口①② |①---|
口口②① |②---|
口口④④ |③---|
口口③③ |④---|
21
①口①③ |①---|
口④②口 |--②-|
③②④口 |③---|
口口口口 |--④-|
22
①④口口 |①-②-|
口口③⑤ |③-④-|
口②口① |--⑤-|
口⑦⑥口 |⑥-⑦-|
23
②②②④ |①---|
①口口④ |②---|
④③③③ |③---|
口口口口 |④---|
24
③①②④ |①---|
口①②口 |②---|
口④③口 |③---|
口②①口 |④---|
25
口①②口 |①---|
②口口① |--②-|
①口口② |----|
口②①口 |----|
26
口口口口 |①---|
口③口① |②---|
④口②口 |③---|
口口口口 |④---|
27
①口②④ |①---|
口③口口 |②---|
④②③口 |③---|
口口口口 |④---|
28
口口口口 |①---|
口②①② |②---|
口①口①
口②①②

③口③口
口口口口
口口口口 |③---|
④口④口 |④---|
29
②②②① |①---|
③③①① |----|
口①①① |②---|
口口口① |③---|
30
口口口口 |①---|
口③口① |②---|
①口口口 |③---|
④口②口 |④---|
31
①口②④ |①---|
③口②④ |②---|
③④口口 |③---|
口②口③ |④---|
32
口①②口 |①---|
③①②④ |②---|
④口口③ |③---|
口②①口 |④---|
33
①①口口 |①---|
③④口② |----|
②口④③ |②--③|
口口①① |-④--|
34
口口①① |①---|
口口口口 |----|
②④③口 |--②-|
①①口口 |③-④-|
35
④②①③ |①---|
④②①③ |②---|
③口④口 |③---|
口口②口 |④---|
36
口口口口 |①---|
口②①② |②---|
口①口①
口②①②

③口③口
口口口口
口口口口 |③---|
④口④口 |④---|
37
口口口① |①---|
口口①① |----|
口口口①
口口口①

②口口③
②②口口
②口口口 |②---|
②口口口 |--③-|
38
口口④口 |①-②-|
口口口口 |③-④-|
口③②口 |----|
口①口口 |----|
39
口口口口 |①---|
口口①口 |----|
口①口①
口口①口

口口口口
口口口口
口口口口 |--②-|
口④③② |③-④-|
40
①口①口 |①---|
口②口口 |--②-|
①口①口 |----|
口③口口 |③---|
41
口口口口 |①---|
口口①口 |----|
口①②① |----|
口口①口 |--②-|
42
④口口口 |①-②-|
②①③① |--③-|
口口口口 |--④-|
口①口① |----|
43
口口①口 |①---|
口①③① |--②-|
口口①口 |----|
口口②口 |③---|
44
口①③① |①---|
口口口口 |--②-|
口①②① |----|
口口口口 |③---|
45
②①②口 |①---|
①②①口 |----|
②①②口 |②---|
口口口口 |----|
46
口口口口 |①---|
口②①② |----|
口①②① |②---|
口②①② |----|
47
⑥口⑤① |①---|
④口⑦口 |②-③-|
②口③④ |④-⑤-|
①口口口 |⑥-⑦-|
48
口④口口 |①---|
口③口② |②---|
口②③口 |③---|
口①④口 |④---|
49
⑥口⑤① |①---|
④口口口 |②-③-|
②口③④ |④-⑤-|
①口⑦口 |⑥-⑦-|
50
口④口② |①---|
口③口口 |②---|
口②③口 |③---|
口①④口 |④---|
51
⑥口口③ |①---|
④口①⑤ |②-③-|
②口④口 |④-⑤-|
①口⑦口 |⑥-⑦-|
52
口④口口 |①---|
口③口口 |②---|
口②④口 |③---|
口①口口 |④---|
53
⑤口⑥① |①---|
③口口口 |②---|
②口③② |③-④-|
①口④口 |⑤-⑥-|
54
④口口口 |①---|
口③口口 |②---|
口②③口 |③---|
口①口④ |④---|
55
口口口口 |①---|
口口①口 |②-③-|
②②口口
①①③口

⑥⑥口⑤
④④⑦口
口口口口 |④-⑤-|
口口口④ |⑥-⑦-|
56
④④口口 |①---|
③③口② |②---|
②②③口 |③---|
①①④口 |④---|
57
⑥⑥⑤① |①---|
④④⑦④ |②-③-|
②②③口 |④-⑤-|
①①口口 |⑥-⑦-|
58
④④③② |①---|
③③口口 |②---|
②②④口 |③---|
①①口口 |④---|
59
口口口① |①---|
口口口口 |②-③-|
②②口③
①①口口

⑥⑥口⑥
④④⑤口
口口④口 |④-⑤-|
口口⑦口 |⑥-⑦-|
60
④④口口 |①---|
③③口口 |②---|
②②④口 |③---|
①①口口 |④---|
61
口口口① |①---|
口口口口 |②-③-|
②②口口
①①③口

⑥⑥口⑦
④④口口
口口⑤④ |④-⑤-|
口口口口 |⑥-⑦-|
62
口口口口 |①-②-|
③④②① |③-④-|
⑦⑧⑧⑦ |⑤-⑥-|
⑥⑤⑤⑥ |⑦-⑧-|
63
①口口① |①---|
②口③② |②-③-|
⑦⑥⑤⑥ |④-⑤-|
④口④口 |⑥-⑦-|
64
①口①⑦ |①-②-|
⑤②⑧口 |③-④-|
口⑥④口 |⑤-⑥-|
口③口③ |⑦-⑧-|
65
③①④⑧ |①-②-|
④②口① |③-④-|
①⑧⑥④ |⑤-⑥-|
⑦④①⑤ |⑦-⑧-|
66
口②口口 |①-②-|
③⑧①口 |③-④-|
④口⑦口 |⑤-⑥-|
口⑤⑥口 |⑦-⑧-|
67
①③口③ |①-②-|
口口口④ |③-④-|
口②口口
口口口口

⑦口⑦口
口口口口
⑧口⑥口 |⑤-⑥-|
口⑤口⑤ |⑦-⑧-|
68
口口口口 |①---|
口②①② |②---|
口①口①
口②①②

③口③口
④口口口
⑥口口口 |③-④-|
⑤口⑤口 |⑤-⑥-|
69
③③③① |①---|
④④①① |②---|
口①①① |③---|
口②口① |④---|
70
口口口口 |①-②-|
⑧口口⑤ |③-④-|
①⑦③口 |⑤-⑥-|
口②⑥④ |⑦-⑧-|
71
①③口③ |①-②-|
口②④口 |③-④-|
⑧⑦⑥⑦ |⑤-⑥-|
⑤口⑤口 |⑦-⑧-|
72
①口①⑦ |①-②-|
⑤②⑧口 |③-④-|
口⑥④口 |⑤-⑥-|
口③口③ |⑦-⑧-|
73
①①口口 |①---|
③④口② |----|
②口④③ |②--③|
口口①① |-④--|
74
口口①① |①---|
口口口口 |----|
口口口口
①①口口

口口口口
④口口②
口口③口 |--②-|
④口口② |③-④-|
75
⑦③⑦③ |①-②-|
口④口口 |③-④-|
⑧①⑥口 |⑤-⑥-|
口⑤②⑤ |⑦-⑧-|
76
口口口口 |①---|
口②①② |②---|
口①口①
口②①②

③④③口
口口口口
口口⑥口 |③-④-|
⑤口⑤口 |⑤-⑥-|
77
口口口① |①---|
口口①① |----|
口口口①
口口口①

②口口③
②②口口
②口口口 |②---|
②口口口 |--③-|
78
口口④口 |①-②-|
口口口口 |③-④-|
口③②口 |----|
口①口口 |----|
79
②②②口 |----|
口①①① |①---|
口口①口 |--②-|
口口①口 |----|
80
口②②② |①---|
口口①口 |--②-|
口①①口
①①口口

口口口口
口④口④
口口④口 |----|
口③④③ |③-④-|
81
口口口口 |----|
口口口口 |----|
口口口口 |----|
口口口口 |----|
82
①口①口 |----|
①①①口 |①---|
口①口口 |----|
口口口口 |----|

accuracy: 100%
最終更新:2022年03月26日 06:03