アットウィキロゴ
50th Memorial Songs -Flagship medley-
BEMANI Sound Team

BASIC

Level: 4
BPM: 135-175
Notes: 173

1
口口口口 |(175)----|
口口口口 |----|
口口口口 |----|
口口口口 |----|
2
口口口口 |①---|
①口口口 |----|
口口口口 |----|
口口口口 |----|
3
口口口口 |①---|
口①口口 |----|
口口口口 |----|
口口口口 |----|
4
口口口口 |①---|
口口①口 |----|
口口口口 |----|
口口口口 |----|
5
口口口口 |①---|
口口口① |----|
口口口口 |----|
口口口口 |----|
6
口口口口 |①---|
口口口口 |----|
口②口口 |②---|
口①口口 |----|
7
口②口口 |①---|
口①口口 |----|
口口口口 |②---|
口口口口 |----|
8
口口①口 |①---|
口口②口 |----|
口口口口 |②---|
口口口口 |----|
9
口口口口 |①---|
口口口口 |----|
口口①口 |②---|
口口②口 |----|
10
口口口口 |①---|
①口口口 |----|
②口口口 |②---|
口口口口 |----|
11
口口口口 |①---|
口口口口 |②---|
口③④口 |③---|
口①②口 |④---|
12
口口口口 |①---|
口口口① |----|
口口口② |②---|
口口口口 |----|
13
口口口口 |①---|
口口口口 |②---|
口④③口 |③---|
口②①口 |④---|
14
口口口口 |①---|
①口口口 |----|
②口口口 |②---|
口口口口 |----|
15
口口口口 |①---|
口口口口 |②---|
口③④口 |③---|
口①②口 |④---|
16
口口口口 |①---|
口口口① |----|
口口口② |②---|
口口口口 |----|
17
口口口口 |①---|
口口口口 |②---|
口④③口 |③---|
口②①口 |④---|
18
口③③口 |①---|
①口口① |--②-|
②口口② |----|
口口口口 |--③-|
19
口口口口 |(135)----|
口口口口 |----|
口口口口 |----|
口口口口 |----|
20
口①口口 |①---|
口②口口 |----|
口口口口 |②---|
口口口口 |----|
21
口口口口 |①---|
口口口口 |----|
口①口口 |②---|
口②口口 |----|
22
口口口口 |①---|
②口口② |----|
口口口口 |②---|
口口①口 |----|
23
口口口口 |----|
口口口口 |----|
口口口口 |----|
口口口口 |----|
24
口口①口 |①---|
口口②口 |----|
口口口口 |②---|
口口口口 |----|
25
口口口口 |①---|
口口口口 |----|
口口①口 |②---|
口口②口 |----|
26
口口口口 |①---|
②口口② |----|
口口口口 |②---|
口①口口 |----|
27
口口口口 |----|
口口口口 |----|
口口口口 |----|
口口口口 |----|
28
口①口口 |①---|
口口口口 |----|
口口口口 |----|
口口口口 |----|
29
口口①口 |①---|
口口口口 |----|
口口口口 |----|
口口口口 |----|
30
口口口口 |①---|
口①口口 |----|
口口口口 |----|
口口口口 |----|
31
口口口口 |①---|
口口①口 |----|
口口口口 |----|
口口口口 |----|
32
口口口口 |①---|
口口口口 |----|
口①口口 |----|
口口口口 |----|
33
口口口口 |①---|
口口口口 |----|
口口①口 |----|
口口口口 |----|
34
口口口口 |①---|
口口口口 |----|
口口口口 |----|
口①口口 |----|
35
口口口口 |①---|
②口口② |----|
①口口① |②---|
口口口口 |----|
36
口①①口 |①---|
口口口口 |----|
口口口口 |----|
口口口口 |----|
37
①②③④ |①---|
口口口口 |②---|
口口口口 |③---|
口口口口 |④---|
38
口口口口 |①---|
④③②① |②---|
口口口口 |③---|
口口口口 |④---|
39
口口口口 |①---|
口口口口 |②---|
①②③④ |③---|
口口口口 |④---|
40
口口口口 |①---|
口口口口 |②---|
口口口口 |③---|
④③②① |④---|
41
口口口口 |①---|
口口口口 |②---|
①②③④ |③---|
口口口口 |④---|
42
口口口口 |①---|
④③②① |②---|
口口口口 |③---|
口口口口 |④---|
43
①②③④ |①---|
口口口口 |②---|
口口口口 |③---|
口口口口 |④---|
44
口口口口 |①---|
④③②① |②---|
口口口口 |③---|
口口口口 |④---|
45
口口口口 |----|
口口口口 |----|
口口口口 |----|
口口口口 |----|
46
口口口口 |(143)①---|
口口口口 |----|
口①②口 |②---|
口口口口 |----|
47
②口口② |①--②|
①口口① |----|
口口口口 |----|
口口口口 |----|
48
口②②口 |①--②|
口①①口 |----|
口口口口 |----|
口口口口 |----|
49
口口口口 |①---|
口口口口 |----|
口①②口 |②---|
口口口口 |----|
50
口口口口 |①---|
口口口口 |----|
①口口② |②---|
口口口口 |----|
51
②口口② |①--②|
①口口① |----|
口口口口 |----|
口口口口 |----|
52
口口口口 |①---|
口口口口 |----|
口①②口 |②---|
口口口口 |----|
53
口口口口 |①---|
口口口口 |----|
①口口② |②---|
口口口口 |----|
54
口①口口 |①---|
口②口口 |②---|
口③口口 |③---|
口④口口 |④---|
55
口口④口 |①---|
口口③口 |②---|
口口②口 |③---|
口口①口 |④---|
56
口①口口 |①---|
口②口口 |②---|
口③口口 |③---|
口④口口 |④---|
57
口口④口 |①---|
口口③口 |②---|
口口②口 |③---|
口口①口 |④---|
58
①口口① |①---|
②口口② |--②-|
③口口③ |----|
口口口口 |③---|
59
口口口口 |(175)①---|
口①①口 |----|
口口口口 |----|
口口口口 |----|
60
口口口口 |①---|
①口口口 |----|
②口口口 |②---|
口口口口 |----|
61
口口口口 |①---|
口口口口 |②---|
口③④口 |③---|
口①②口 |④---|
62
口口口口 |①---|
口口口① |----|
口口口② |②---|
口口口口 |----|
63
口口口口 |①---|
口口口口 |②---|
口④③口 |③---|
口②①口 |④---|
64
口口口口 |①---|
①口口口 |----|
②口口口 |②---|
口口口口 |----|
65
口口口口 |①---|
口口口口 |②---|
口③④口 |③---|
口①②口 |④---|
66
口口口口 |①---|
口口口① |----|
口口口② |②---|
口口口口 |----|
67
口口口口 |①---|
口口口口 |②---|
口④③口 |③---|
口②①口 |④---|
68
口口口口 |①---|
①口口① |----|
口口口口 |----|
口口口口 |----|
69
口口口口 |----|
口口口口 |----|
口口口口 |----|
口口口口 |----|
70
口口口口 |----|
口口口口 |----|
口口口口 |----|
口口口口 |----|

accuracy: 100%
最終更新:2022年06月14日 03:37