アットウィキロゴ
50th Memorial Songs -Flagship medley-
BEMANI Sound Team

ADVANCED

Level: 7
BPM: 135-175
Notes: 473

1
口口口口 |(175)----|
口口口口 |----|
口口口口 |----|
口口口口 |----|
2
口①②口 |①-②-|
口③④口 |----|
口口口口 |③-④-|
口口口口 |----|
3
口口口口 |①-②-|
口口口口 |----|
口①②口 |③-④-|
口③④口 |----|
4
口口口口 |①-②-|
口口口口 |----|
③口口④ |③-④-|
①口口② |----|
5
口③③④ |①-②-|
①口⑤② |--③-|
口⑥口口 |--④-|
口口口口 |⑤-⑥-|
6
口口口口 |①-②-|
口口口口 |③---|
口⑥④⑤ |④-⑤-|
口③①② |⑥---|
7
口⑥④⑤ |①-②-|
口③①② |③---|
口口口口 |④-⑤-|
口口口口 |⑥---|
8
口口口口 |①-②-|
口口口口 |③---|
⑤④⑥口 |④-⑤-|
②①③口 |⑥---|
9
④口口④ |①-②-|
②①③口 |③-④-|
口⑤⑥口 |--⑤-|
口⑦口口 |⑥-⑦-|
10
口③口③ |①-②-|
②口⑤口 |③---|
⑥④⑥④ |④---|
口口①口 |⑤-⑥-|
11
口①口① |--①-|
④口④口 |--②-|
口②口口 |③---|
口③口③ |④---|
12
口①口① |----|
口口③口 |①---|
④②④② |②---|
口口口口 |③-④-|
13
口①口① |--①-|
口③口③ |--②-|
口②口口 |③---|
口④口④ |④---|
14
口①口① |----|
口口③口 |①---|
④②④② |②---|
口口口口 |③-④-|
15
口①口① |--①-|
④口④口 |--②-|
口②口口 |③---|
口③口③ |④---|
16
口①口① |----|
口口③口 |①---|
④②④② |②---|
口口口口 |③-④-|
17
口①口① |--①-|
口③口③ |--②-|
口②口口 |③---|
口④口④ |④---|
18
④①②④ |①-②-|
⑤⑤⑤⑤ |--③-|
④③③④ |--④-|
口口口口 |--⑤-|
19
口口口口 |(135)----|
口口口口 |----|
口口口口 |----|
口口口口 |----|
20
口④③口 |①---|
④②①⑤ |②---|
口①②④ |③---|
口③④口 |④--⑤|
21
口口口口 |-①--|
口口口口 |②-③-|
②口①口
口③口口

口口口口
口⑥⑤口
⑦口口④ |④-⑤-|
口口口口 |⑥-⑦-|
22
口②①口 |①--②|
③③③③ |--③-|
口①②口 |----|
口口口口 |----|
23
口口⑥口 |--①-|
口口口⑤ |②-③-|
口③④口 |④--⑤|
口①②口 |--⑥-|
24
口④③口 |①---|
④②①⑤ |②---|
口①②④ |③---|
口③④口 |④--⑤|
25
口口口口 |-①--|
口口口口 |②-③-|
②口①口
口③口口

口口口口
口⑥⑤口
⑦口口④ |④-⑤-|
口口口口 |⑥-⑦-|
26
③②①③ |①--②|
③口口③ |--③-|
口①②口 |----|
口口口口 |----|
27
⑤口④口 |--①-|
口③口口 |-②--|
口口②口 |③--④|
口①口口 |--⑤-|
28
口⑥⑥口 |--①-|
口口②④ |②-③-|
口口①③ |④--⑤|
口⑤⑤口 |--⑥-|
29
口⑥⑥口 |--①-|
④②口口 |②-③-|
③①口口 |④--⑤|
口⑤⑤口 |--⑥-|
30
⑥⑥⑥⑥ |--①-|
口口②④ |②-③-|
口口①③ |④--⑤|
口⑤⑤口 |--⑥-|
31
口口口口 |--①-|
口②①口 |②---|
口②①口 |----|
口口口口 |----|
32
口⑥⑥口 |--①-|
口口②④ |②-③-|
口口①③ |④--⑤|
口⑤⑤口 |--⑥-|
33
口⑥⑥口 |--①-|
④②口口 |②-③-|
③①口口 |④--⑤|
口⑤⑤口 |--⑥-|
34
口口口① |①---|
口口②口 |②---|
口③口口 |③---|
④口口口 |④---|
35
④④口③ |①--②|
①⑤⑤① |--③-|
②⑤⑤② |④---|
口⑤口口 |⑤---|
36
口口口① |①---|
口口口① |----|
口口口口 |----|
口口口口 |----|
37
⑧⑥④② |①-②-|
口口口口 |③-④-|
口⑤口口 |⑤-⑥-|
⑦⑤③① |⑦-⑧-|
38
⑧⑥④② |①-②-|
口口口口 |③-④-|
口⑤口口 |⑤-⑥-|
⑦⑤③① |⑦-⑧-|
39
⑧⑥④② |①-②-|
口口口口 |③-④-|
⑤口口口 |⑤-⑥-|
⑤⑦①③ |⑦-⑧-|
40
⑧⑥④② |①-②-|
口口口口 |③-④-|
⑤口口口 |⑤-⑥-|
⑤⑦①③ |⑦-⑧-|
41
⑧⑥④② |①-②-|
口口口口 |③-④-|
口⑤口口 |⑤-⑥-|
⑦⑤③① |⑦-⑧-|
42
⑧⑥④② |①-②-|
口口口口 |③-④-|
口⑤口口 |⑤-⑥-|
⑦⑤③① |⑦-⑧-|
43
⑧⑥④② |①-②-|
口口口口 |③-④-|
⑤口口口 |⑤-⑥-|
⑤⑦①③ |⑦-⑧-|
44
口⑥④② |①-②-|
⑧⑧⑧⑧ |③-④-|
⑤口口口 |⑤-⑥-|
⑤⑦①③ |⑦-⑧-|
45
口口口口 |----|
口口口口 |----|
口口口口 |----|
口口口口 |----|
46
口口口口 |(143)①---|
①②口① |②---|
①口③① |③---|
口④口口 |④---|
47
口口口口 |①--②|
①口口② |----|
①口③② |③---|
口④口口 |④---|
48
口口口口 |①--②|
②口口① |----|
②③口① |③---|
口口④口 |④---|
49
②②①① |①--②|
口④③口 |--③-|
口⑥⑤口 |④-⑤-|
口口口口 |⑥---|
50
①①①① |①---|
口②口口 |②---|
口口③口 |③---|
口④口口 |④---|
51
口口口口 |①--②|
①口口② |----|
①口③② |③---|
口④口口 |④---|
52
①①②② |①--②|
口③④口 |--③-|
口⑤⑥口 |④-⑤-|
口口口口 |⑥---|
53
②②①① |①--②|
口④③口 |--③-|
口⑥⑤口 |④-⑤-|
口口口口 |⑥---|
54
①口口① |①---|
①②口① |②---|
口口③口 |③---|
口口口④ |④---|
55
口口口④ |①---|
口口③口 |②---|
口②口口 |③---|
①口口口 |④---|
56
①口口口 |①---|
口②口口 |②---|
口口③口 |③---|
口口口④ |④---|
57
①口口② |①---|
①口④② |②---|
口③口口 |③---|
口口口口 |④---|
58
口③口口 |①--②|
①③口② |--③-|
①口口②
口口口口

口口④口
⑤口④⑥
口口口口 |-④--|
口⑥⑤口 |⑤-⑥-|
59
口口口口 |(175)①---|
口口口口 |----|
①①①① |----|
口口口口 |----|
60
①⑤口④ |①---|
口③②口 |②---|
②⑤口③ |③---|
口口口口 |④-⑤-|
61
②口①口 |--①-|
④口口③ |--②-|
口口①口 |③---|
口③④口 |④---|
62
口④口③ |----|
口②①口 |①---|
①④口② |②---|
口口口口 |③-④-|
63
②口①口 |--①-|
④口口③ |--②-|
口口①口 |③---|
口③④口 |④---|
64
口④口③ |----|
口②①口 |①---|
①④口② |②---|
口口口口 |③-④-|
65
②口①口 |--①-|
④口口③ |--②-|
口口①口 |③---|
口③④口 |④---|
66
口④口③ |----|
口②①口 |①---|
①④口② |②---|
口口口口 |③-④-|
67
②口①口 |--①-|
④口口③ |--②-|
口口①口 |③---|
口③④口 |④---|
68
口①①口 |①---|
口①①口 |----|
口①①口 |----|
口口口口 |----|
69
口口口口 |----|
口口口口 |----|
口口口口 |----|
口口口口 |----|
70
口口口口 |----|
口口口口 |----|
口口口口 |----|
口口口口 |----|

accuracy: 100%
最終更新:2022年06月16日 02:41