アットウィキロゴ
50th Memorial Songs -Flagship medley-
BEMANI Sound Team

EXTREME

Level: 9.5
BPM: 135-175
Notes: 673

1
口口口口 |(175)----|
口口口口 |----|
口口口口 |----|
口口口口 |----|
2
口口口口 |①-②-|
口①②口 |----|
口③④口 |③-④-|
口口口口 |----|
3
口口口口 |①-②-|
口⑥⑤口 |----|
口③④口 |③-④-|
口①②口 |⑤-⑥-|
4
口①②⑤ |①-②-|
口口⑥口 |----|
口③④口 |③-④-|
口口口口 |⑤-⑥-|
5
③①③口 |①-②-|
②口口口 |--③-|
④⑤⑥⑦ |--④⑤|
口口口口 |⑥⑦--|
6
⑤口口② |①-②-|
④口口① |③---|
口口口口 |④-⑤-|
⑥⑥③③ |⑥---|
7
⑥⑥③③ |①-②-|
口口口口 |③---|
口④①口 |④-⑤-|
口⑤②口 |⑥---|
8
⑤口口② |①-②-|
④口口① |③---|
口口口口 |④-⑤-|
⑥⑥③③ |⑥---|
9
口④④口 |①-②-|
⑦③③口 |③-④-|
⑥口①口 |--⑤-|
口⑤②口 |⑥-⑦-|
10
口口口口 |①-②-|
口⑥口口 |③---|
口④④① |④-⑤-|
③④⑤② |--⑥-|
11
②⑦④① |①-②-|
②⑦③② |③-④-|
④口⑥口 |⑤-⑥-|
口⑤⑦口 |⑦---|
12
口口口口 |①-②-|
口⑥口口 |③---|
口④④① |④-⑤-|
③④⑤② |--⑥-|
13
②⑦④① |①-②-|
②⑦③② |③-④-|
④口⑥口 |⑤-⑥-|
口⑤⑦口 |⑦---|
14
口口口口 |①-②-|
口⑥口口 |③---|
口④④① |④-⑤-|
③④⑤② |--⑥-|
15
②⑦④① |①-②-|
②⑦③② |③-④-|
④口⑥口 |⑤-⑥-|
口⑤⑦口 |⑦---|
16
口口④① |①---|
口⑤③口 |②---|
口③⑤口 |③-④-|
②③口② |--⑤-|
17
①⑤口② |--①-|
①⑤⑤① |②-③-|
③口口口 |④---|
口④口④ |⑤---|
18
口口③口 |①-②-|
口口口口 |--③-|
口①口口
口③②口

④口口④
④⑤⑤④
④⑤⑤④ |--④-|
口口口口 |--⑤-|
19
口口口口 |(135)----|
②⑤④③ |----|
口①口口 |①-②-|
口口口口 |③④⑤-|
20
②口①口 |①---|
口口口口 |②---|
口口口口
口①口②

⑤④⑤③
④口口③
③口口④ |③---|
③口④口 |④--⑤|
21
口口口③ |-①--|
口②口② |②-③-|
口①口口
口口口口

口⑥口口
口口④⑦
⑤⑥口口 |④-⑤-|
口口④口 |⑥-⑦-|
22
口口②③ |①--②|
口①③口 |--③-|
口③①口
③②口口

④口口口
口⑤口口
口口口口 |④---|
口口口口 |⑤---|
23
⑦口④口 |①-②③|
口口口口 |④⑤⑥⑦|
③口①⑥
口⑤②口

口口口⑧
⑪⑮口⑫
口⑬⑩口 |⑧⑨⑩⑪|
⑨口⑭口 |⑫⑬⑭⑮|
24
②口①口 |①---|
口口口口 |②---|
口口口口
口①口②

⑤④⑤③
④口口③
③口口④ |③---|
③口④口 |④--⑤|
25
口⑦口③ |-①--|
④②⑥② |②-③-|
口①口⑤ |④-⑤-|
④口⑥口 |⑥-⑦-|
26
③④③① |①--②|
③③⑤口 |--③-|
③口③口 |④---|
②①口② |⑤---|
27
口⑤口④ |①-②③|
③口口口 |④⑤⑥⑦|
口口②①
口⑦⑥口

⑩口口口
⑭口⑪⑨
⑧⑫⑬⑮ |⑧⑨⑩⑪|
口口口口 |⑫⑬⑭⑮|
28
④口口口 |①-②-|
口②口③ |③-④-|
口口口口
①②口口

口⑥⑤⑤
⑥口口⑦
口口口⑥ |⑤--⑥|
口口⑥⑦ |--⑦-|
29
口口口② |--①-|
③口口口 |②-③-|
口①口口
口口口口

口⑥⑤口
口口口⑤
⑤⑥④④ |④--⑤|
口⑤口口 |--⑥-|
30
①口口口 |--①-|
口口口口 |②-③-|
口口②口
口③口口

口口④④
口口口⑥
⑤口⑥⑤ |④--⑤|
⑤口口⑤ |--⑥-|
31
①①①③ |--①-|
②②②⑤ |②-③-|
口②④⑤ |--④-|
口口口口 |⑤---|
32
④④⑤③ |--①-|
⑥口①⑤ |②-③-|
⑤②口口 |④--⑤|
⑥⑤①口 |--⑥-|
33
②⑤⑥⑥ |--①-|
⑤口口③ |②-③-|
④④①⑤ |④--⑤|
⑥⑥⑤口 |--⑥-|
34
口口口口 |①---|
口②③口 |②---|
口④①口 |③---|
口口口口 |④---|
35
口①口① |①--②|
口口口口 |-③④-|
口口③④
②口②口

⑥⑥⑤口
⑥⑥⑤口
⑥⑤口口 |⑤---|
口⑤口口 |⑥---|
36
口口口① |①---|
口口口口 |----|
口口口口 |----|
口口口口 |----|
37
⑪⑩⑫口 |①②③-|
⑧⑦⑨⑦ |④⑤⑥-|
⑤④⑥口 |⑦⑧⑨-|
②①③口 |⑩⑪⑫-|
38
口⑫⑩⑪ |①②③-|
⑦⑨⑦⑧ |④⑤⑥-|
口⑥④⑤ |⑦⑧⑨-|
口③①② |⑩⑪⑫-|
39
口口⑦口 |①②③-|
③⑥⑨⑫ |④⑤⑥-|
①④⑦⑩ |⑦⑧⑨-|
②⑤⑧⑪ |⑩⑪⑫-|
40
②⑤⑧⑪ |①②③-|
①④⑦⑩ |④⑤⑥-|
③⑥⑨⑫ |⑦⑧⑨-|
口口⑦口 |⑩⑪⑫-|
41
⑪⑩⑫口 |①②③-|
⑧⑦⑨⑦ |④⑤⑥-|
⑤④⑥口 |⑦⑧⑨-|
②①③口 |⑩⑪⑫-|
42
口⑫⑩⑪ |①②③-|
⑦⑨⑦⑧ |④⑤⑥-|
口⑥④⑤ |⑦⑧⑨-|
口③①② |⑩⑪⑫-|
43
口口⑦口 |①②③-|
③⑥⑨⑫ |④⑤⑥-|
①④⑦⑩ |⑦⑧⑨-|
②⑤⑧⑪ |⑩⑪⑫-|
44
②⑤⑧⑪ |①②③-|
①④⑦⑩ |④⑤⑥-|
③⑥⑨⑫ |⑦⑧⑨-|
口口⑦口 |⑩⑪⑫-|
45
口口口口 |----|
口口口口 |----|
口口口口 |----|
口口口口 |----|
46
口②口④ |(143)①---|
口①①口 |②---|
①①口口 |③---|
①口③口 |④---|
47
口①②③ |①--②|
口①②口 |----|
④口口口 |③---|
口①②口 |④---|
48
③①②口 |①--②|
口①②口 |----|
口口口④ |③---|
口①②口 |④---|
49
⑥②①⑥ |①--②|
③②①口 |--③-|
④③③⑤ |④-⑤-|
④①②③ |⑥---|
50
口①①④ |①---|
②①①口 |②---|
口口①③ |③---|
口①①口 |④---|
51
③①②口 |①--②|
口①②口 |----|
口④口口 |③---|
口①②口 |④---|
52
⑥②①⑥ |①--②|
③②①口 |--③-|
④③③⑤ |④-⑤-|
④①②③ |⑥---|
53
⑥①②⑥ |①--②|
口①②③ |--③-|
⑤③③④ |④-⑤-|
③②①④ |⑥---|
54
口①①口 |①---|
口②口口 |②---|
④口③口 |③---|
口①①口 |④---|
55
口③③口 |①---|
口②口① |②---|
口口④口 |③---|
口③③口 |④---|
56
口口口口 |①---|
①口②① |②---|
①口口①
口口口口

口口口口
口口口口
口③口④ |③---|
口口口口 |④---|
57
①②④③ |①②-③|
口⑤口口 |④---|
口口⑥口 |⑤---|
口口口口 |⑥---|
58
③口②③ |①--②|
①口②① |--③-|
口②口口
①②口①

口④口口
⑤口口⑤
⑥⑥⑥口 |-④--|
⑤口④⑤ |⑤-⑥-|
59
①口口① |(175)①---|
口①①口 |----|
口口口口 |----|
口口口口 |----|
60
口口口口 |①-②-|
口⑥口口 |③---|
口④④① |④-⑤-|
③④⑤② |--⑥-|
61
②⑦④① |①-②-|
②⑦③② |③-④-|
④口⑥口 |⑤-⑥-|
口⑤⑦口 |⑦---|
62
口口口口 |①-②-|
口⑥口口 |③---|
口④④① |④-⑤-|
③④⑤② |--⑥-|
63
②⑦④① |①-②-|
②⑦③② |③-④-|
④口⑥口 |⑤-⑥-|
口⑤⑦口 |⑦---|
64
口口口口 |①-②-|
口⑥口口 |③---|
口④④① |④-⑤-|
③④⑤② |--⑥-|
65
②⑦④① |①-②-|
②⑦③② |③-④-|
④口⑥口 |⑤-⑥-|
口⑤⑦口 |⑦---|
66
口口口口 |①-②-|
口⑥口口 |③---|
口④④① |④-⑤-|
③④⑤② |--⑥-|
67
②⑥④③ |①-②-|
⑥口口口 |③-④-|
口⑤口② |⑤---|
⑤口口① |⑥---|
68
口口口口 |①---|
口口①① |----|
口口①① |----|
口口①① |----|
69
口口口口 |----|
口口口口 |----|
口①②口 |----|
口口口口 |--①②|
70
口口口口 |①---|
口口口口 |----|
口口口① |----|
口口口口 |----|

accuracy: 100%
最終更新:2022年06月16日 03:07