アットウィキロゴ
スペースカーニバル [ 2 ]
shooting star

EXTREME

Level: 9.1
BPM: 160
Notes(hold): 641(78)

1
口口口口 |----|
口口口口 |----|
口口口口 |----|
口口口口 |----|
2
――① |①---|
口口口口 |----|
口口口口 |②---|
口口口口 |----|

口口口口
口口口口
口口口口
口口②口
3
口口口① |①---|
①――< |----|
口口口口 |②---|
口②口口 |----|
4
口口②口 |①---|
①口口口 |----|
――① |②---|
口口口口 |----|
5
口②口口 |①---|
口口口口 |----|
口口口① |②---|
①――< |----|
6
口口口① |①---|
口口口| |----|
口口口| |②---|
①口②∧ |----|
7
①口口① |①---|
|口口口 |----|
|口口口 |②---|
∧②口口 |----|
8
①口①口 |①---|
口口|口 |----|
口口|口 |②---|
口口∧② |--③-|

口③③口
口口口口
口口口口
口口口口
9
⑦⑦⑦口 |--①-|
③口口④ |②-③-|
口②⑤口 |④-⑤-|
①口口⑥ |⑥-⑦-|
10
⑦⑦⑦⑦ |--①-|
口④③口 |②-③-|
⑤口口② |④-⑤-|
口⑥①口 |⑥-⑦-|
11
口口口⑦ |--①-|
口⑥③⑦ |②-③-|
⑦②⑤口 |④-⑤-|
⑦④①口 |⑥-⑦-|
12
①②②口 |--①-|
①口口口 |--②-|
口口口① |--③-|
口②②① |④-⑤-|

口口口口
口口③口
口④>⑤
口口口口
13
①口口③ |--①-|
口②④口 |②-③-|
⑥<口① |④-⑤-|
口⑤⑤口 |--⑥-|
14
③口口① |--①-|
口④②口 |②-③-|
①口>⑥ |④-⑤-|
口⑤⑤口 |--⑥-|
15
口②口⑤ |--①-|
①口④口 |②-③-|
口③口① |④-⑤-|
口口口口 |--⑥-|

口口口口
口口口口
∨口口∨
⑥口口⑥
16
④口>⑤ |----|
口③>⑤ |①-②-|
口口②口 |③-④-|
①①①① |--⑤-|
17
⑥<口① |--①-|
⑥<口① |②-③-|
①②④口 |④-⑤-|
口⑤③口 |--⑥-|
18
①口∨⑥ |--①-|
①口⑥∧ |②-③-|
口④②① |④-⑤-|
口③⑤口 |--⑥-|
19
⑥⑥口① |--①-|
口⑥①口 |②-③-|
口口⑤口 |④-⑤-|
①②④③ |--⑥-|
20
⑤⑤①① |--①-|
口口⑤⑤ |②-③-|
③③④④ |④-⑤-|
②②口口 |----|
21
②②③③ |----|
②②③③ |①---|
②①口① |②---|
口①①① |③---|
22
②口口口 |①---|
口②口口 |②---|
口①<口 |③-④-|
①<口口 |⑤---|

口③⑤口
口口③⑤
口④口口
④口口口
23
①③⑤口 |①-②-|
②④⑥口 |③-④-|
口口>① |⑤-⑥-|
口>①口 |⑦-⑧-|

口口口⑦
口口口⑧
口口口⑧
口口⑧口
24
口口口口 |①-②-|
①③⑤⑦ |③-④-|
②④⑥⑧ |⑤-⑥-|
口口口口 |⑦-⑧-|
25
口口①口 |----|
∨①口口 |①---|
①口口口 |②---|
口口口口 |③---|

口口口口
口口口②
②口②口
口②<口

口口口口
口口③口
口③口口
口③口口
26
①―<② |①---|
口①③口 |②---|
口口口口 |③---|
口口口口 |④---|

④口口口
口口口口
口④口口
口口口口
27
口口口口 |①---|
口口口口 |----|
∨口口口 |----|
①>①口 |②---|

口口口口
口口口口
口口口口
②口②口
28
③口口① |①---|
③③①① |②-③-|
口①①② |--④-|
口口口② |⑤-⑥-|

口④④⑤
口口口⑤
口⑥⑥口
口口口口
29
⑥<⑤口 |--①-|
②①①④ |②-③-|
②口口口 |--④-|
口③③口 |⑤-⑥-|
30
①口口口 |①-②-|
②<口口 |③-④-|
口口口口 |⑤-⑥-|
口口口口 |⑦-⑧-|

口口口口
③口口口
口口口口
口口>④

口口口口
口口口口
口口>⑥
口口口⑤

口口口口
口口口口
∨口口⑦
⑧口口口
31
口⑦<① |--①-|
⑦⑥②口 |②-③-|
∧③⑤口 |④-⑤-|
①口口④ |⑥-⑦-|
32
口①口口 |--①-|
①口口∨ |--②-|
口①口② |--③-|
口>②口 |④-⑤-|

⑤口口口
口口③口
口口④③
口口③口
33
口口口③ |--①-|
口①>⑥ |②-③-|
口②④口 |--④-|
口口⑤口 |⑤-⑥-|
34
口口口口 |--①-|
口口口① |--②-|
②<口口 |--③-|
①口口口 |--④-|

口口口③
口口口口
③口口∨
口口口④
35
②口口口 |--①-|
③口口① |②-③-|
口口口口 |④-⑤-|
口口口① |⑥-⑦-|

口口④④
口口⑤口
⑥⑥⑥口
⑦<⑦<
36
③②②口 |----|
③口口口 |--①-|
口④④口 |--②-|
①口①口 |③-④-|
37
口⑤>⑥ |--①-|
④①①② |②-③-|
口口口② |--④-|
口③③口 |⑤-⑥-|
38
口口口① |①-②-|
口口>② |③-④-|
口口口口 |⑤-⑥-|
口口口口 |⑦-⑧-|

口口口口
口口口③
口口口口
④<口口

口口口口
口口口口
⑥<口口
⑤口口口

口口口口
口口口口
⑦口口∨
口口口⑧
39
①⑦口⑦ |--①-|
口②口口 |②-③-|
口⑦③⑦ |④-⑤-|
⑥⑤④① |⑥-⑦-|
40
⑤⑤口口 |--①-|
口口①口 |--②-|
口口④口 |--③-|
③口③② |④-⑤-|
41
口口③③ |--①-|
口⑥⑤口 |②-③-|
口②④⑤ |--④-|
⑥①口④ |⑤-⑥-|
42
②口③口 |--①-|
∨口口① |--②-|
④②口③ |--③-|
口口①口 |--④-|
43
口口口⑦ |--①-|
口②⑥| |②-③-|
①⑤①∧ |④-⑤-|
④口③口 |⑥-⑦-|
44
①口口口 |--①-|
②口口口 |②-③-|
③口口口 |④-⑤-|
口口口口 |⑥-⑦-|

⑦口⑦⑥
口⑥口口
口⑤口口
口④口口
45
口口口口 |--①-|
口④口② |--②-|
④<④② |--③-|
①③①口 |--④-|
46
口①>① |----|
口口①口 |①---|
①口口口 |②-③-|
口口口口 |--⑥⑦|

口口口②
口口口口
口口⑦口
③②⑥口
47
②③口口 |①-②-|
口③①⑥ |③---|
口口⑤口 |--④-|
口口口④ |⑤-⑥-|
48
口⑤①口 |①---|
②⑥⑧口 |②③④-|
③⑦⑨口 |⑤⑥⑦-|
④口⑩口 |⑧⑨⑩-|
49
⑧⑤④⑧ |①-②-|
①口口⑥ |③-④-|
⑧口口③ |⑤-⑥-|
口②⑦口 |⑦-⑧-|
50
④口④④ |----|
口口口口 |①---|
口①②③ |②---|
口①②③ |③-④-|
51
④口口④ |----|
口④<口 |①---|
③②①口 |②---|
③②①口 |③-④-|
52
④―<口 |----|
口①口口 |①---|
口①②③ |②---|
口①②③ |③-④-|
53
口口口④ |--①-|
口口①口 |②-③-|
③口口口 |④-⑤-|
口口②口 |⑥-⑦-|

⑥口口口
口⑤口口
口⑥口口
口>―⑦
54
口⑤⑤⑥ |--①-|
口③①⑥ |②-③-|
②⑦⑦口 |④-⑤-|
④口口④ |⑥-⑦-|
55
⑥<⑤口 |--①-|
②①①④ |②-③-|
②口口口 |--④-|
口③③口 |⑤-⑥-|
56
①口口口 |①-②-|
②<口口 |③-④-|
口口口口 |⑤-⑥-|
口口口口 |⑦-⑧-|

口口口口
③口口口
口口口口
口口>④

口口口口
口口口口
口口>⑥
口口口⑤

口口口口
口口口口
⑧口口⑦
⑧口口口
57
口⑦<① |--①-|
⑦⑥②口 |②-③-|
∧③⑤口 |④-⑤-|
口口口④ |⑥-⑦-|
58
口①口口 |--①-|
①口口∨ |--②-|
口①口② |--③-|
①>②口 |④-⑤-|

⑤口口③
口口③口
口口④③
口口③口
59
口③口③ |--①-|
口①口口 |②-③-|
口②口口 |--④-|
口口口口 |⑤-⑥-|

口口口口
口⑥>⑥
口口④口
口口⑤口
60
口口①口 |--①-|
口口口① |--②-|
②<②口 |--③-|
①口口口 |--④-|

口口口③
口口口口
③口口∨
口③口④
61
②口口口 |--①-|
③口口① |②-③-|
口口口口 |④-⑤-|
口口口① |⑥-⑦-|

口口④④
口口⑤口
⑥⑥⑥口
⑦<⑦<
62
③②②口 |----|
③口口口 |--①-|
口④④口 |--②-|
①口①④ |③-④-|
63
口口口口 |--①-|
口①①② |②-③-|
③口口② |--④-|
口③③口 |⑤-⑥-|

口⑤>⑥
④⑥口口
口口口口
口口口口
64
口口口① |①-②-|
口口>② |③-④-|
口口口口 |⑤-⑥-|
口口口口 |⑦-⑧-|

口口口口
口口口③
口口④口
④<口口

口口口口
口口口口
⑥<口口
⑤口口口

口口口口
口口口口
⑦口口∨
口口口⑧
65
①口口口 |--①-|
口②口口 |②-③-|
口口③口 |④-⑤-|
⑥⑤④① |⑥-⑦-|

口⑦>⑦
口口口口
口⑦<⑦
口口口口
66
⑤⑤口① |--①-|
口口①④ |--②-|
口①④③ |--③-|
③口③② |④-⑤-|
67
口∨③③ |--①-|
②⑥⑤口 |②-③-|
①②④⑤ |--④-|
⑥①口④ |⑤-⑥-|
68
②口>② |--①-|
口①口① |--②-|
口①口口 |--③-|
口口①口 |--④-|

口口口③
∨口口④
④口口∧
③③口口
69
口口口口 |--①-|
口②口① |②-③-|
①口①口 |④-⑤-|
④口③口 |⑥-⑦-|

口口⑦⑦
口口⑥|
口⑤口|
口口口∧
70
①口口口 |--①-|
②口口口 |②-③-|
③口口口 |④-⑤-|
口口口口 |⑥-⑦-|

⑦⑦口口
口⑥口口
口⑤口口
口④口口
71
口口①口 |--①-|
口口②口 |②-③-|
口口③口 |④-⑤-|
口口口口 |⑥-⑦-|

口⑦⑦口
口⑥口口
口⑤口口
口④口口
72
②口口① |①-②-|
③口②口 |③-④-|
④口③口 |⑤-⑥-|
口口④口 |⑦-⑧-|

⑧⑧⑧⑧
口⑦口⑦
口⑥口⑥
口⑤口⑤
73
⑤⑤⑤⑤ |--①-|
①④①④ |--②-|
③②③② |--③-|
①②①② |④-⑤-|
最終更新:2019年11月08日 03:04