アットウィキロゴ
Icicles [ 2 ]
Jimmy Weckl

EXTREME

Level: 9.3
BPM: 158
Notes(hold): 681(66)

1
口口口口 |----|
口口口口 |----|
口口口口 |----|
口口口口 |----|
2
口口口口 |----①-|
⑤口口⑤ |--②---|
口③④口 |③---④-|
口①②口 |--⑤---|
3
①<口① |----|
口口口口 |①---|
①口口① |②--③|
口口口口 |④⑤⑥⑦|

⑦口⑦口
口⑥⑤口
口④③口
口口②口
4
⑤①口口 |①---|
④口口② |--②-|
③口口口 |-③--|
口口>② |④--⑤|
5
口①口口 |--①-|
⑦②口⑧ |-②--|
⑤③④⑥ |③④⑤⑥|
口口口⑧ |⑦⑧--|
6
①①⑥② |①---②-|
口⑤口口 |--③---|
口③口口 |④---⑤-|
口口④口 |--⑥---|
7
口口口口 |--①-|
①口口口 |②---|
口口口口 |③-④-|
②②━< |--⑤-|

口口口口
口④④③
口口⑤口
口③口口
8
>━①① |①---|
口口口口 |②-③-|
口口口口 |----|
口口口口 |④---|

口口②口
②③③口
∨口口口
④口口④
9
口口口口 |---①|
口②①口 |②③④⑤|
口④③口 |⑥--⑦|
口⑥⑤口 |--⑧-|

口口口口
口口口⑦
口口口口
⑧口口⑧
10
①口口④ |----|
④③②口 |①②③④|
口②③① |----|
口⑤口口 |--⑤-|
11
①③口口 |①--②|
口口③口 |--③-|
口③口② |--④-|
②口③① |⑤---|

⑤口⑤口
⑤口口口
口口口口
口④口口
12
④口口① |----|
口②③④ |①②③④|
①③②口 |----|
口口⑤口 |--⑤-|
13
口口③④ |①--②|
①③②口 |--③-|
⑤②③① |--④-|
⑤③⑤口 |⑤---|
14
①口口④ |----|
④③②口 |①②③④|
口②③① |----|
口⑤口口 |--⑤-|
15
①③口口 |①--②|
口口③口 |--③-|
口③口② |--④-|
②口③① |⑤---|

⑤口⑤口
⑤口口口
口口口口
口④口口
16
④口口① |----|
口②③④ |①②③④|
①③②口 |----|
口口⑤口 |--⑤-|
17
口口③④ |①--②|
①③②口 |--③-|
⑤②③① |--④-|
⑤③⑤口 |⑤---|
18
②①②③ |①---|
⑤⑥口口 |②-③-|
口①②① |----|
口④口口 |④-⑤⑥|
19
口口口③ |①-②-|
口口①口 |--③-|
口②口口 |--④-|
口口口口 |⑤-⑥-|

口⑥口口
口口⑤口
口口口④
口口口口
20
②口②口 |①---|
口①口① |②-③-|
口③口口 |--④-|
口口口口 |⑤-⑥⑦|

口口口④
⑥⑦口⑤
口口口口
口口口口
21
③口口口 |①-②-|
口口①口 |--③-|
口②口口 |--④-|
口⑤④口 |⑤---|
22
②①口⑤ |①---|
⑤④③口 |②③④⑤|
口③④② |----|
口⑥口口 |--⑥-|
23
①③口口 |①--②|
口口③口 |--③-|
口③口② |--④-|
②口③① |⑤---|

⑤口⑤口
⑤口口口
口口口口
口④口口
24
④口口① |----|
口②③④ |①②③④|
①③②口 |----|
口口⑤口 |--⑤-|
25
口口③④ |①--②|
①③②口 |--③-|
⑤②③① |--④-|
⑤③⑤口 |⑤---|
26
①口口④ |----|
④③②口 |①②③④|
口②③① |----|
口⑤口口 |--⑤-|
27
①③口口 |①--②|
口口③口 |--③-|
口③口② |--④-|
②口③① |⑤---|

⑤口⑤口
⑤口口口
口口口口
口④口口
28
④口口① |----|
口②③④ |①②③④|
①③②口 |----|
口口⑤口 |--⑤-|

口口③④ |①--②|
①③②口 |--③-|
⑤②③① |--④-|
⑤③⑤口 |⑤---|
30
口①口口 |①---②-|
口口②口 |--③---|
口③口口 |④---|
口>④口 |--⑤⑥|

口口口口
口⑤⑥口
口口口口
口口⑤口
31
口口口口 |①---|
口口口① |----|
口口口∧ |--②-|
口口口口 |-③--|

口③口③
口口口②
②口②口
口口口口
32
口口口口 |①---|
口∨口口 |--②-|
口①口① |--③-|
口口口口 |----|

②口②口
口口∨口
口②③口
口口口口
33
口口口① |①---|
口口口∧ |--②-|
口口①口 |--③-|
口口口口 |----|

∨口口②
③②口口
口口口口
口口口口
34
口口口口 |①---|
①口口② |--②③|
口∨③口 |④---|
口④口口 |--⑤-|

口口口口
口口口口
口口口口
口⑤⑤口
35
∨口口口 |①---|
①口口口 |--②-|
口口口口 |--③-|
口口口口 |----|

口口口口
②③口③
口口②口
口口口口
36
①①③口 |①---|
口④口③ |②-③-|
口口口口 |----|
口口②口 |④---|
37
口②⑤口 |①-②-|
②口③⑤ |----|
口口口口 |③---|
口①④口 |④-⑤-|
38
口③口口 |----|
③①口口 |①---|
口口口口 |②-③-|
口②口口 |----|
39
①口口① |①---|
口口口口 |②-③-|
③∨口② |--④⑤|
口③②口 |-⑥⑦-|

口口④⑥
口口⑤⑦
口口口口
口口口口
40
口口口口 |--①②|
口口口口 |-③④-|
口口①③ |⑤⑥⑦⑧|
口口②④ |⑨⑩--|

口口口⑧
口⑤口⑥
⑨⑦⑩口
口口口口
41
③②①⑦ |①②③④|
口④⑤⑥ |⑤⑥⑦-|
口口口口 |⑧-⑨⑩|
口①口口 |-⑪-⑫|

口口⑪口
口口⑫口
⑨⑩口口
口口⑧口
42
⑤⑥⑧⑦ |①②-③|
②①口口 |④-⑤⑥|
口口④③ |-⑦⑧-|
口口口口 |⑨⑩⑪⑫|

口口口口
口口口口
⑨口口⑪
口⑩⑫口
43
口③⑦口 |①②③④|
口⑥②④ |--⑤⑥|
口①⑤口 |⑦⑧--|
口⑧口口 |⑨⑩⑪⑫|

口口口口
口口口口
⑪⑫口口
口口⑩⑨
44
③④⑥⑤ |①②③④|
⑦⑧②① |⑤⑥⑦⑧|
口口⑩⑨ |⑨⑩⑪⑫|
⑪⑫口口 |⑬⑭⑮⑯|

口口口口
口口⑯⑮
口口口口
口口⑭⑬
45
③④④① |①---|
③口⑤口 |②-③-|
②②⑤口 |--④-|
口口口口 |--⑤-|
46
①口口② |--①-|
口③口② |--②-|
②口③口 |--③-|
口③①口 |----|
47
③口口口 |①---|
③口口口 |②-③-|
②②口口 |--④-|
口口①口 |--⑤-|

口口口④
口口口④
口口口口
⑤口⑤口
48
③⑤④③ |----①-|
②⑤④② |--②---|
③口①口 |③---|
口①口② |④-⑤-|
49
③④④⑤ |①---|
③口口口 |②-③-|
②②口口 |--④-|
口⑤①口 |--⑤-|
50
①②口③ |--①-|
③口口口 |--②-|
②口③② |--③-|
口口①口 |----|
51
口口口口 |①---②-|
口口口口 |--③---|
∨口口口 |④---⑤-|
①口口口 |--⑥---|

口口口口
口口口口
口口口口
②②<口

口口口口
口口口口
>③口口
口③口口

口口口口
口口口口
口④④<
口口口口

口口∨口
口口⑤口
口口⑤口
口口口口

口口口口
口口⑥⑥
口口口∧
口口口口
52
①<口口 |①---②-|
口口口① |--③---|
口口口口 |④---⑤-|
口口口口 |--⑥---|

②口口口
②口口口
∧口口口
口口口口

口∨口口
③③口口
口口口口
口口口口

口口口口
口④口口
>④口口
口口口口

口口口口
口口∨口
口⑤⑤口
口口口口

口口口口
口口口口
口口⑥口
口口⑥口

53
口⑧⑥口 |①②③④|
③⑦⑤④ |-⑤⑥-|
①口口② |⑦⑧-⑨|
口⑩⑨口 |⑩---|
54
②口口⑤ |①---|
⑤④③① |②③④⑤|
①③④② |----|
口⑥口口 |--⑥-|
55
①③口口 |①--②|
口口③口 |--③-|
口③口② |--④-|
②口③① |⑤---|

⑤口⑤口
⑤口口口
口口口口
口④口口
56
④口口① |----|
口②③④ |①②③④|
①③②口 |----|
口口⑤口 |--⑤-|
57
口口③④ |①--②|
①③②口 |--③-|
⑤②③① |--④-|
⑤③⑤口 |⑤---|
58
①口口④ |----|
④③②口 |①②③④|
口②③① |----|
口⑤口口 |--⑤-|
59
①③口口 |①--②|
口口③口 |--③-|
口③口② |--④-|
②口③① |⑤---|

⑤口⑤口
⑤口口口
口口口口
口④口口
60
④口口① |----|
口②③④ |①②③④|
①③②口 |----|
口口⑤口 |--⑤-|
61
口口③④ |①--②|
①③②口 |--③-|
⑤②③① |--④-|
⑤③⑤口 |⑤---|
62
>①口口 |①---②-|
口口口口 |--③---|
口口口口 |④---⑤-|
口口口口 |--⑥---|

口②口口
>②口口
口口口口
口口口口

口口口口
口③口口
>③口口
口口口口

口口口口
口口口口
口④口口
口口④<

口口口口
口口口口
口口⑤<
口口⑤口

口口口口
口口⑥<
口口⑥口
口口口口
63
①<口口 |①---②-|
口口①口 |--③---|
口口口口 |④---⑤-|
口口口口 |--⑥---|

②口口口
②<口口
口口口口
口口口口

口口口口
③口口口
③<口口
口口口口

口口口口
口口口口
④口口口
口口>④

口口口口
口口口口
口口>⑤
口口口⑤

口口口口
口口>⑥
口口口⑥
口口口口
64
>①口口 |①---②-|
口口口① |--③---|
口口口口 |④---⑤-|
口口口口 |--⑥---|

口②口口
>②口口
口口口口
口口口口

口口口口
口③口口
>③口口
口口口口

口口口口
口口口口
口④口口
口口④<

口口口口
口口口口
口口⑤<
口口⑤口

口口口口
口口⑥<
口口⑥口
口口口口
65
①<口口 |①---②-|
口口①口 |--③---|
口口口口 |④---⑤-|
口口口口 |--⑥---|

②口口口
②<口口
口口口口
口口口口

口口口口
③口口口
③<口口
口口口口

口口口口
口口口口
④口口口
口口>④

口口口口
口口口口
口口>⑤
口口口⑤

口口口口
口口口⑥
口口口⑥
口口口口
66
口口口① |①-②-|
口口②口 |③-④-|
∨口口口 |⑤-⑥-|
①口口口 |----|

④口口口
口⑤口口
口③口∨
③口口④

口口口口
口口口口
口口⑥口
口口口⑥
67
口口口① |①-②-|
口口②口 |③-④-|
∨口口口 |⑤-⑥-|
①口口口 |----|

④口口口
口⑤口口
口③口∨
③口口④

口口口口
口口口口
口口⑥口
口口口⑥
68
口口②口 |①-②-|
口口口① |③-④-|
∨口口口 |⑤-⑥-|
①口口口 |⑦-⑧-|

口③口④
口口口∧
④口口口
③⑤口口

⑦口口⑥
∧口口⑦
口口⑧口
口口⑥口
69
①口口口 |①-②-|
口③口口 |③-④-|
②①口∨ |⑤-⑥-|
口口口② |⑦-⑧-|

口口⑥口
口口④⑤
∨口口口
⑤口口④

口⑦口⑧
口口口∧
⑧口口口
⑦口口口
70
③口口② |①-②-|
∧口口③ |③-④-|
口口④口 |⑤-⑥-|
口①②口 |⑦-⑧-|

⑤口口口
口⑦口口
⑥⑤口∨
口口口⑥

口口口口
口口⑧口
口口口口
口口口⑧
71
口①①① |----|
口∧∧∧ |①---|
∨∨∨口 |----|
①①①口 |----|
72
口①①① |----|
口口口口 |--①-|
口口口口 |----|
①①①口 |----|
最終更新:2020年11月28日 16:51