アットウィキロゴ
BEEF
BEMANI Sound Team "牛"

ADVANCED

Level: 7
BPM: 175
Notes: 494

1
口口口口 |----|
口口口口 |----|
口口口口 |----|
口口口口 |----|
2
口口口口 |----|
口口口口 |----|
口口口口 |----|
口口口口 |----|
3
口口口口 |①---|
口②②口 |----|
口口口口 |②---|
口口口① |----|
4
①口口口 |①---|
口口口口 |----|
口②②口 |②---|
口口口口 |----|
5
口口口① |①---|
口口口口 |----|
口②②口 |②---|
口口口口 |----|
6
口口口口 |①---|
口②②口 |----|
口口口口 |②---|
①口口口 |----|
7
口口口口 |①---|
口②②口 |----|
口口口口 |②---|
口口口① |----|
8
①口口口 |①---|
口口口口 |----|
口②②口 |②---|
口口口口 |----|
9
口口口① |①---|
口口口口 |----|
口②②口 |②---|
口口口口 |----|
10
口②②口 |①---|
②口口② |----|
口口口口 |②---|
①口口口 |----|
11
口口口口 |①---|
口口②口 |----|
口②口口 |②---|
口口①① |----|
12
①①口口 |①---|
口②口口 |----|
口口②口 |②---|
口口口口 |----|
13
口口①① |①---|
口口②口 |----|
口②口口 |②---|
口口口口 |----|
14
口口口口 |①---|
口②口口 |----|
口口②口 |②---|
①①口口 |----|
15
口口口口 |①---|
口口②口 |----|
口②口口 |②---|
口口①① |----|
16
①①口口 |①---|
口②口口 |----|
口口②口 |②---|
口口口口 |----|
17
口口①① |①---|
口口②口 |----|
口②口口 |②---|
口口口口 |----|
18
口口口口 |①---|
②口口② |----|
口②②口 |②---|
①①口口 |----|
19
口口口口 |①---|
②口①口 |----|
②口口口 |②---|
②口口① |----|
20
①口口口 |①---|
口口口② |----|
口①口② |②---|
口口口② |----|
21
②口口① |①---|
②口口口 |----|
②口①口 |②---|
口口口口 |----|
22
②②②② |①---|
口①口口 |----|
口口口口 |②---|
①口口口 |----|
23
口口口口 |①---|
③口①口 |②---|
③口口口 |③---|
③口②① |----|
24
①②口口 |①---|
口口口③ |②---|
口①口③ |③---|
口口口③ |----|
25
③口②① |①---|
③口口口 |②---|
③口①口 |③---|
口口口口 |----|
26
口口口口 |①---|
口①口③ |②---|
口口口③ |③---|
①②口③ |----|
27
②②②② |①---|
口口③口 |②---|
口①口口 |③---|
④④④④ |④---|
28
②②②② |①---|
口③口口 |②---|
口口①口 |③---|
④④④④ |④---|
29
④口口口 |①---|
口③口① |②---|
口口②口 |③---|
口口口口 |④---|
30
口口口① |①---|
③口口① |②---|
③口口口 |③---|
口②②口 |----|
31
②②②② |①---|
③口③口 |②---|
口①口① |③---|
④④④④ |④---|
32
②②②② |①---|
口③口③ |②---|
①口①口 |③---|
④④④④ |④---|
33
口口②口 |①---|
口口①口 |②---|
口③口口 |③---|
口④口口 |④---|
34
③口口③ |①---|
口②①口 |②---|
②口口① |③---|
④口口④ |④---|
35
口口口② |①---|
口口口② |----|
口口口口 |②---|
口口①口 |----|
36
②口口口 |①---|
②口口口 |----|
口口口口 |②---|
口①口口 |----|
37
口口口口 |①---|
口口③③ |②---|
口口②② |③---|
口口①① |----|
38
口口口口 |①---|
③③口口 |②---|
②②口口 |③---|
①①口口 |----|
39
③①③① |①---|
口口口口 |②---|
④②④② |③---|
口口口口 |④---|
40
口口口口 |①---|
③①③① |②---|
口口口口 |③---|
④②④② |④---|
41
④③②① |①-②-|
口口口口 |③-④-|
⑤⑥⑦⑧ |⑤-⑥-|
口口口口 |⑦-⑧-|
42
③口口③ |①---|
②①①② |②---|
口口口口 |③---|
④①①④ |④---|
43
⑤⑤③口 |①---|
④口口③ |②---|
口口①口 |③---|
口口②口 |④-⑤-|
44
口口口口 |----|
口口①口 |①---|
口②口口 |②---|
③口口口 |③---|
45
④口①口 |①---|
口口口口 |②---|
口口口口 |③---|
口③口② |④---|
46
口④口③ |①---|
④口③口 |②---|
口②①口 |③---|
口口口口 |④---|
47
⑤口③口 |①---|
④口口③ |②---|
口口①口 |③---|
口口②口 |④-⑤-|
48
⑥⑥口口 |①-②-|
口口①⑤ |③-④-|
②④口口 |--⑤-|
口④③口 |⑥---|
49
口口口① |①-②-|
口④②口 |③---|
口③口口 |④---|
口口⑤口 |⑤---|
50
口①②口 |①---|
口口口口 |②---|
口口口口 |③---|
③口口③ |----|
51
口口口② |①---|
口①口口 |----|
①③①口 |②---|
口口口口 |--③-|
52
②②口口 |----|
②口口口 |----|
口口口口 |①---|
口①①口 |②---|
53
口口口口 |①---|
口口口① |----|
口②口口 |②---|
口口口口 |----|
54
口口③③ |①---|
①口口③ |----|
口口口口 |②---|
口②②口 |③---|
55
口口口口 |①---|
①口口口 |----|
口口②口 |②---|
口口口口 |----|
56
④④口口 |--①-|
口口③③ |②---|
口②口口 |③---|
口①口口 |④---|
57
口口口口 |①---|
②口口口 |----|
口②口口 |②---|
口口①口 |----|
58
口②②① |①---|
口口①口 |----|
口口口口 |②---|
③口口③ |③---|
59
口口口③ |①---|
④口口② |----|
口口口口 |②---|
口①①口 |③-④-|
60
③③口口 |①---|
口口口口 |②---|
②②口口 |③---|
口口①口 |----|
61
口口口口 |--①-|
③口口① |--②-|
口口口口 |③---|
口④②口 |④---|
62
①③口① |①---|
口③②口 |②---|
口③②口 |③---|
口口口口 |----|
63
②口口① |--①-|
④口口③ |②-③-|
口口口口 |④---|
口⑤⑤口 |⑤---|
64
口口口口 |①-②-|
⑧⑦⑤⑥ |③-④-|
③④②① |⑤-⑥-|
口口口口 |⑦-⑧-|
65
口①①口 |①---|
④口口③ |②---|
④口口③ |③---|
口②②口 |④---|
66
③③③口 |①---|
口口口口 |②---|
口口口口 |③---|
②②口① |----|
67
④口口② |①---|
④口口② |②---|
口①③口 |③---|
口③①口 |④---|
68
口⑥口口 |①-②-|
⑥口口口 |③-④-|
③④口⑤ |⑤---|
口口②① |⑥---|
69
⑥口⑦⑥ |①-②-|
口口①② |③-④-|
口⑤⑤口 |⑤---|
④③口口 |⑥-⑦-|
70
口⑤口口 |①-②-|
口①④口 |③-④-|
②口口③ |⑤---|
⑥口口⑥ |⑥---|
71
④口口② |①---|
口口口口 |②---|
④①③② |③---|
口③①口 |④---|
72
⑥口口口 |①-②-|
口⑥②① |③-④-|
口口口口 |⑤---|
③④口⑤ |⑥---|
73
⑥⑦口⑥ |①-②-|
口口①② |③-④-|
口⑤⑤口 |⑤---|
④③口口 |⑥-⑦-|
74
口口⑤口 |①-②-|
口④①口 |③-④-|
③口口② |⑤---|
⑥口口⑥ |⑥---|
75
②口口④ |①-②-|
①口口③ |③-④-|
⑥口口⑥ |⑤---|
口⑤⑤口 |⑥---|
76
②口④② |①---|
口①①口 |②---|
⑤口③口 |③-④-|
口⑤口口 |⑤---|
77
⑤⑤口口 |①---|
②口④② |②---|
口③口口 |③-④-|
口口①口 |⑤---|
78
口口①① |①---|
②口口口 |②---|
②⑤口口 |③-④-|
⑤口④③ |⑤---|
79
④⑧⑥② |①-②-|
③⑦⑤① |③-④-|
口口口口 |⑤-⑥-|
口口口口 |⑦-⑧-|
80
口口口口 |①-②-|
口口口口 |③-④-|
④⑧⑥② |⑤-⑥-|
③⑦⑤① |⑦-⑧-|
81
口②①口 |①---|
②口口① |②---|
口④③口 |③---|
④口口③ |④---|
82
口②①口 |①---|
口④④口 |②---|
②④口① |③---|
口④口③ |④---|
83
口口口① |①---|
口口口口 |----|
口口口口 |----|
口口口口 |----|
84
①口口口 |①---|
口口口口 |----|
口口口口 |----|
口口口口 |----|
85
口口口口 |①---|
口口口① |----|
口口口口 |----|
口口口口 |----|
86
口口口口 |①---|
①口口口 |----|
口口口口 |----|
口口口口 |----|
87
口口口口 |①---|
口口口口 |----|
口口口① |----|
口口口口 |----|
88
口口口口 |①---|
口口口口 |----|
①口口口 |----|
口口口口 |----|
89
口口口口 |①---|
口口口口 |----|
口口口口 |----|
口口口① |----|
90
口口口口 |①---|
口口口口 |----|
口口口口 |----|
①口口口 |----|
91
口口口口 |①---|
口口口口 |----|
口口口口 |----|
口口①口 |----|
92
口口口口 |①---|
口口口口 |----|
口口口口 |----|
口①口口 |----|
93
口口口口 |①---|
口口口口 |----|
口口①口 |----|
口口口口 |----|
94
口口口口 |①---|
口口口口 |----|
口①口口 |----|
口口口口 |----|
95
口①①口 |①---|
①①①① |----|
口口口口 |----|
口口口口 |----|
96
口口口口 |----|
口口口口 |----|
口口口口 |----|
口口口口 |----|

accuracy: 100%
最終更新:2022年03月26日 03:30