アットウィキロゴ
BEEF
BEMANI Sound Team "牛"

EXTREME

Level: 10.5
BPM: 175
Notes: 929

1
口口口口 |----|
口口口口 |----|
口口口口 |----|
口口口口 |----|
2
口①①口 |①---|
①①①① |----|
口①①口 |----|
口口口口 |----|
3
①口口① |①---|
口⑤④口 |--②-|
口口口口 |③---|
②③口口 |④-⑤-|
4
口口①② |--①-|
口口口口 |②-③-|
④口口口 |④---|
③口口⑤ |⑤---|
5
④①①口 |①-②-|
①①①① |③-④-|
口①①口
口②③口

口口口⑤
口口口口
⑥⑦口⑤ |⑤---|
⑥口口口 |⑥-⑦-|
6
⑤⑥⑦口 |①-②-|
口④③② |③-④-|
口口①⑦ |⑤-⑥-|
口口口口 |⑦---|
7
④④口口 |--①-|
③⑦口口 |②-③-|
②口⑤口 |④---⑤-|
①口口⑥ |⑥-⑦-|
8
口⑥⑥④ |①-②-③-|
⑤口③口 |④-⑤-|
口②口口 |⑥---|
①⑦⑦口 |⑦---|
9
②口口⑦ |①---|
⑥口口① |②-③-|
⑤①口④ |④-⑤-|
口口口③ |⑥-⑦-|
10
口口④口 |①-②-|
口①③① |③-④-|
⑤⑤②口 |⑤---|
⑤⑤口口 |----|
11
①口口① |①---|
口口口④ |--②-|
口口口⑤ |③---|
口口③② |④-⑤-|
12
⑥⑥①口 |①-②-|
②③②口 |③-④-|
口④口口 |⑤---|
⑤口⑤口 |⑥---|
13
口口口口 |--①-|
口⑥④② |②-③-|
⑦⑤③① |④-⑤-|
口口口口 |⑥-⑦-|
14
口①③口 |①---|
①口④③ |②---|
⑤口口② |③-④-|
口⑤②⑤ |⑤---|
15
①③⑤⑦ |--①-|
②④⑥口 |②-③-|
口口口口 |④-⑤-|
口口口口 |⑥-⑦-|
16
⑤④③⑤ |①---|
②口口① |②---|
口②①口 |③-④-|
口①②口 |⑤---|
17
口口口口 |①---|
④③②口 |②-③-|
⑤⑥⑦① |④-⑤-|
口口口① |⑥-⑦-|
18
口口⑤⑤ |①-②-|
⑥口⑤⑤ |③-④-|
⑥口口① |⑤---|
④③②口 |⑥---|
19
④口⑥口 |①-②-③-|
⑦③口口 |④-⑤-|
口口②⑥ |⑥---|
⑤⑦口① |⑦---|
20
④口③③ |--①-|
⑥①③⑥ |②-③-|
①②①③ |④-⑤-|
⑤口③③ |⑥---|
21
口口口④ |①-②-|
口口③口 |③-④-|
②口口口
口①口口

⑤口口口
口口口口
口口口⑦ |⑤-⑥-|
⑧⑧口⑥ |⑦-⑧-|
22
②⑤①④ |--①-|
⑤①①① |--②-|
⑤口①口 |③-④-|
口⑤①③ |⑤---|
23
口口⑧⑥ |①-②-|
口②⑤⑧ |③-④-⑤-|
⑧④口口 |⑥-⑦-|
③口①⑦ |⑧---|
24
①⑩口⑩ |①-②③|
⑨⑧⑦口 |④⑤⑥-|
口④⑤⑥ |⑦⑧⑨-|
口②③口 |⑩---|
25
口口①口 |①-②-|
口口口口 |③-④-|
④口口③
②口口口

口⑧⑨口
口⑥⑦⑤
口口口口 |⑤-⑥⑦|
口口⑤口 |⑧⑨--|
26
⑪口⑪⑤ |①②③④|
⑥口口口 |⑤-⑥-|
⑨④⑩③ |⑦⑧⑨⑩|
⑦②⑧① |⑪---|
27
⑩⑤⑩⑤ |①②③④|
④⑥①⑦ |⑤---|
口口口口 |⑥⑦⑧⑨|
⑧②⑨③ |⑩---|
28
⑩⑤⑩⑤ |①②③④|
④⑥①⑦ |⑤---|
口口口口 |⑥⑦⑧⑨|
⑧②⑨③ |⑩---|
29
口口口口 |①-②-|
口④口口 |③-④-|
口③口②
口口口①

⑦口口⑤
口口口口
口口⑥口 |⑤-⑥-⑦-|
⑧口口⑨ |⑧-⑨-|
30
⑥①③口 |①-②-③-|
①④②口 |④---|
①④⑤⑤ |⑤---|
口④⑤口 |⑥---|
31
⑪⑤⑪⑤ |①②③④|
④⑦①⑧ |⑤-⑥-|
口⑥⑫口 |⑦⑧⑨⑩|
⑨②⑩③ |⑪-⑫-|
32
⑪⑤⑪⑤ |①②③④|
④⑦①⑧ |⑤-⑥-|
口⑥⑫口 |⑦⑧⑨⑩|
⑨②⑩③ |⑪-⑫-|
33
⑦②⑨⑥ |①----②-③--|
③⑩口口 |④-⑤-|
⑧④口⑤ |⑥-⑦-|
口①口口 |⑧----⑨-⑩--|
34
⑤口口④ |①--②|
③⑥⑥② |③-④-|
口④①⑤ |⑤---|
⑥口口⑥ |⑥---|
35
②②②口 |①---|
口口口口 |----|
口口口口 |②---|
口①①口 |----|
36
口口②② |①---|
口口口口 |----|
口口口③ |②---|
口①①③ |③---|
37
①②③口 |①---|
①②③④ |②---|
①②③④ |③---|
①②③口 |④---|
38
口②口口 |①---|
①②③口 |②---|
①②③口 |③---|
①④③口 |④---|
39
⑤⑥②① |①②-③|
口口口口 |④-⑤⑥|
③④⑧⑦ |-⑦⑧-|
⑨口口口 |⑨---|
40
口口口口 |①②-③|
①②⑥⑤ |④-⑤⑥|
口口口⑨ |-⑦⑧-|
⑦⑧④③ |⑨---|
41
④③②① |①-②-|
⑤口口口 |③-④-|
⑥口口口 |⑤-⑥-⑦-|
⑦⑧⑨⑩ |⑧-⑨-⑩-|
42
⑦口口⑦ |①②③④|
口④③② |⑤---|
口⑤⑦① |⑥---|
⑥口口口 |⑦---|
43
口口口口 |①---|
①①②② |②---|
口口口口
口②口①

⑤口⑤口
口⑤口口
⑤③口④ |③---|
口口③口 |④-⑤-|
44
⑥①口② |----|
口⑤口口 |①-②-|
口口④口 |③-④-⑤-|
⑦口口③ |⑥-⑦-|
45
⑥口⑤② |①---|
①④②③ |②-③-|
①①⑥② |④-⑤-|
口①①口 |⑥---|
46
口⑥⑦④ |①-②-③-|
⑥口③⑦ |④-⑤-|
⑥②⑦口 |⑥---|
①口口⑤ |⑦---|
47
③⑤口口 |①---|
口口②⑥ |②-③-|
口④口④ |④---|
①①④口 |⑤-⑥-|
48
④⑧⑤③ |①-②-|
①口口⑦ |③-④-|
②口口④ |-⑤⑥⑦|
⑥口口① |⑧---|
49
③口⑥④ |①-②③|
①⑤④口 |④⑤⑥-|
①①口④
口①①②

口口口口
口口口⑧
口口口口 |⑦---|
⑦⑨口口 |⑧-⑨-|
50
④口口⑤ |①-②-③-|
⑥③口口 |④-⑤-|
⑥口②口 |⑥---|
⑥口口① |----|
51
②③④⑤ |①---|
口口①① |②③④⑤|
口①口①
口①口①

口口口口
口⑦口⑨
口口口口 |⑥-⑦-|
⑥口⑧口 |⑧-⑨-|
52
③⑥口⑥ |--①-|
口⑥⑥⑥ |②-③-|
②口⑥① |④-⑤-|
⑤口口④ |⑥---|
53
口口⑤口 |①-②-|
⑦⑥口口 |③-④-|
③④口⑤ |⑤---|
口②①口 |⑥-⑦-|
54
⑦口⑦④ |①-②-|
⑦⑦⑦③ |③-④-|
⑤⑦口⑥ |⑤-⑥-|
⑤①②⑥ |⑦---|
55
⑦①口⑥ |①-②③|
⑧口口④ |④-⑤-|
⑤口③⑥ |⑥---|
口②①口 |⑦-⑧-|
56
口⑤③⑤ |--①-|
口⑥②⑥ |②-③-|
口⑤①⑤ |④---|
④⑥④⑥ |⑤-⑥-|
57
①口④口 |①-②-|
口口②口 |③-④-|
③口口口
口口口口

⑦⑦口口
⑤口口口
口口⑥口 |⑤-⑥-|
口口口口 |--⑦-|
58
口口⑤⑤ |--①-|
④④④④ |②-③-|
③①④② |④-⑤-|
⑥⑥④口 |⑥---|
59
⑥口口⑤ |①-②-|
④⑥⑤⑦ |③-④-|
口②口③ |⑤---|
口口口① |⑥-⑦-|
60
⑤③⑥④ |①-②-|
③口④口 |③---|
口③①④ |④---|
③②④口 |⑤-⑥-|
61
口口口③ |--①-|
口口③口 |--②-|
②口①⑤ |③---|
口④口① |④-⑤-|
62
①③③口 |①---|
③③③③ |②---|
口③③口 |③---|
②④④② |④---|
63
①口⑤① |①-②-|
⑦⑥口④ |③-④-|
⑧口口③ |⑤--⑥|
口口口② |⑦-⑧-|
64
⑦口口③ |①-②-|
口⑧④口 |③-④-|
口⑥②口 |⑤-⑥-|
⑤口口① |⑦-⑧-|
65
口④③口 |①②--|
⑨口口⑦ |③---④-|
④⑥⑤③ |⑤⑥--|
⑧②①口 |⑦⑧⑨-|
66
③③③③ |①---|
口③③口 |②---|
③③③③ |③---|
口②②① |----|
67
⑦⑧⑨⑩ |①②③④|
⑤口口⑥ |⑤-⑥-|
⑫口口⑪ |⑦⑧⑨⑩|
④③②① |⑪-⑫-|
68
⑥口口口 |①②③④|
④③⑤口 |⑤-⑥-|
口⑥口口
口⑤②①

口⑩⑩⑦
口口口⑩
⑨口⑩⑧ |⑦-⑧⑨|
口口⑪口 |⑩-⑪-|
69
⑦⑨⑨⑦ |①-②-|
③①⑤⑨ |③④⑤⑥|
口④口⑥ |⑦---|
⑧②口⑧ |⑧-⑨-|
70
⑤⑥⑥⑤ |①-②-|
④⑤口口 |③-④-|
③④①⑥ |⑤---|
口③②口 |⑥---|
71
⑨⑧⑦⑥ |①②③④|
口⑩⑤口 |⑤---|
⑤⑩⑤⑩ |⑥⑦⑧⑨|
①②③④ |⑩---|
72
⑨口⑦口 |①-②-|
⑨口②② |③④⑤⑥|
⑥口④口 |⑦-⑧-|
①⑤⑧③ |⑨---|
73
口口口① |①-②-|
口④口⑥ |③④⑤⑥|
③②⑤②
口口口口

口⑦⑦⑨
口口⑨口
口口口口 |⑦---|
⑧口口⑧ |⑧-⑨-|
74
②⑥⑥口 |①-②-|
①④口③ |③-④-|
⑤②④③ |⑤---|
口⑤①口 |⑥---|
75
⑧⑩口④ |①②③④|
⑦口⑪③ |⑤⑥⑦⑧|
⑥⑫口② |⑨-⑩⑪|
⑤⑨口① |⑫---|
76
⑥⑩⑪⑥ |①②③④|
⑨④⑦③ |⑤⑥--|
⑪⑧⑪口 |⑦⑧⑨⑩|
②⑪①⑤ |⑪---|
77
②⑩⑪③ |①-②③|
⑧①口④ |④-⑤⑥|
⑨口口⑦ |⑦⑧⑨⑩|
⑤⑪①⑥ |⑪---|
78
⑥⑦⑨③ |①②③④|
⑨②⑧⑦ |⑤-⑥-|
⑦⑧①⑨ |⑦-⑧-|
④⑨⑦⑤ |⑨---|
79
④口口⑤ |①②-③|
口③口口 |④-⑤-|
口口①口
口口口②

口⑧口口
口口口⑦
⑧口口口 |⑥-⑦-|
⑥⑦⑧⑨ |⑧-⑨-|
80
⑫⑬⑦⑤ |①②③④|
④⑩①⑬ |⑤⑥⑦⑧|
⑭②⑨③ |⑨⑩⑪⑫|
⑥⑧⑪⑭ |⑬-⑭-|
81
口口⑥口 |①②③④|
口⑦②口 |⑤⑥⑦⑧|
口①⑧④
③⑤口口

⑨⑩口⑪
⑮口口⑫
口⑭口口 |⑨⑩⑪⑫|
口口⑬口 |⑬⑭⑮-|
82
口⑦④口 |①②③-|
口口⑤口 |④⑤⑥⑦|
口口⑥①
口③口②

⑨口口⑧
⑩⑩口⑪
⑩⑩口⑪ |⑧-⑨-|
⑩口⑩⑪ |⑩-⑪-|
83
口口口口 |①---|
口口口口 |----|
口口②口 |②---|
口①口口 |----|
84
口口②口 |①---|
口①口口 |----|
口口口口 |②---|
口口口口 |----|
85
口口口口 |①---|
口口口口 |----|
口口口② |②---|
①口口口 |----|
86
口口口② |①---|
①口口口 |----|
口口口口 |②---|
口口口口 |----|
87
口①口口 |①---|
口口②口 |----|
口口口口 |②---|
口口口口 |----|
88
口口口口 |①---|
口口口口 |----|
口①口口 |②---|
口口②口 |----|
89
口①①口 |①---|
①①①① |----|
口①①口 |②---|
口口口② |----|
90
②口口口 |①---|
口口口口 |----|
口口口口 |②---|
①口口口 |----|
91
口①①② |①---|
口①①口 |----|
①①①① |②---|
口口口口 |----|
92
口口口口 |①---|
①口口口 |----|
口口口② |②---|
口口口口 |----|
93
口口口口 |①---|
口口口口 |----|
口口②口 |②---|
①口口口 |----|
94
口口②口 |①---|
口①口口 |----|
口口口口 |②---|
口口口口 |----|
95
口口口口 |①---|
口口口口 |----|
①①①① |----|
①①①① |----|
96
口口口① |①---|
口①①口 |----|
①口①口 |----|
口①口口 |----|

accuracy: 100%
最終更新:2022年03月31日 10:53