アットウィキロゴ
[E] [ 2 ]
dj MAX STEROID

EXTREME

Level: 9.7
BPM: 152
Notes(hold): 782(40)

1
口口口口 |----|
口口口口 |----|
口口口口 |----|
口口口口 |----|
2
①口⑩⑤ |①-②③|
⑥口∧⑨ |④-⑤-|
口⑦⑧② |⑥⑦⑧⑨|
口④③口 |⑩---|
3
①口①口 |①-②③|
口⑦⑥⑤ |--④-|
①口口口 |⑤⑥⑦-|
口③②④ |⑧-⑨-|

⑨口口口
口口口口
口口口⑧
口口口口
4
口口口⑨ |①②-③|
⑤⑥⑦③ |--④-|
⑧②①口 |⑤⑥⑦-|
④口口口 |⑧-⑨-|
5
①②口口 |①②-③|
⑦⑥⑤⑨ |--④-|
口口口⑧ |⑤⑥⑦-|
④口③口 |⑧⑨-⑩|

⑩口口口
口口口口
口口口口
口口口口
6
⑧口口③ |①②-③|
⑤⑥⑦口 |--④-|
⑨②①口 |⑤⑥⑦-|
口口④口 |⑧-⑨-|
7
口口口① |①-②③|
⑤⑥⑦口 |--④-|
口口口① |⑤⑥⑦-|
④②③口 |⑧-⑨-|

口口口⑨
口口口口
⑧口口口
口口口口
8
⑨口口口 |①②-③|
③⑦⑥⑤ |--④-|
口①②⑧ |⑤⑥⑦-|
口口口④ |⑧-⑨-|
9
口口②① |①②-③|
⑨⑤⑥⑦ |--④-|
⑧口口口 |⑤⑥⑦-|
口③口④ |⑧⑨-⑩|

口口口⑩
口口口口
口口口口
口口口口
10
口口口口 |①---|
口口口口 |----|
口口①口 |②③-④|
口①口口 |--⑤-|

口②②口
口④④③
口⑤⑤口
口口口口
11
①口口口 |①-②③|
③⑦⑥⑤ |--④-|
①口口口 |⑤⑥⑦-|
③④②④ |⑧-⑨-|

⑨口口口
口口口口
口口口⑧
口口口口
12
口口口⑨ |①②-③|
⑤⑥⑦③ |--④-|
⑧②①口 |⑤⑥⑦-|
④口④③ |⑧-⑨-|
13
①②口口 |①②-③|
⑦⑥⑤⑨ |--④-|
口口口⑧ |⑤⑥⑦-|
③④③④ |⑧⑨-⑩|

⑩口口口
口口口口
口口口口
口口口口
14
⑧③口③ |①②-③|
⑤⑥⑦口 |--④-|
⑨②①口 |⑤⑥⑦-|
④口④口 |⑧-⑨-|
15
口口口① |①-②③|
⑤⑥⑦③ |--④-|
口口口① |⑤⑥⑦-|
④②④③ |⑧-⑨-|

口口口⑨
口口口口
⑧口口口
口口口口
16
⑨口口口 |①②-③|
③⑦⑥⑤ |--④-|
口①②⑧ |⑤⑥⑦-|
③④口④ |⑧-⑨-|
17
口口②① |①②-③|
⑨⑤⑥⑦ |--④-|
⑧口口口 |⑤⑥⑦-|
④③④③ |⑧⑨-⑩|

口口口⑩
口口口口
口口口口
口口口口
18
③口③口 |①②-③|
口⑥⑦口 |--④-|
⑤①②⑧ |-⑤⑥⑦|
口④口④ |⑧---|
19
①③②① |①---|
①口口① |----|
④口口口 |②---|
④②③口 |③--④|
20
⑤口②⑥ |-①-②|
③①②④ |③-④-|
口①口口 |⑤---|
⑥口口⑤ |⑥---|
21
⑤①⑤口 |①-②③|
口口②口 |--④-|
口③口④ |⑤---|
口口①口 |⑥--⑦|

口口口⑦
口口口⑦
口口口口
⑥口⑥口
22
⑥口口⑥ |-①-②|
口口①口 |③-④-|
④②①③ |⑤---|
⑤②口⑤ |⑥---|
23
口②③口 |①---|
①口口① |----|
口①①④ |②---|
口③②④ |③--④|
24
⑥②口⑤ |-①-②|
④②①③ |③-④-|
口口①口 |⑤---|
⑤口口⑥ |⑥---|
25
口⑤①⑤ |①-②③|
口②口口 |--④-|
④口③口 |⑤---|
口①口口 |⑥--⑦|

⑦口口口
⑦口口口
口口口口
口⑥口⑥
26
口口口口 |-①-②|
口①口口 |③-④-|
③①②④ |⑤---|
⑤口②⑤ |⑥---|

口⑥⑥口
口⑥⑥口
口口口口
口口口口
27
口⑦口口 |①②-③|
②⑤⑨③ |④--⑤|
①口⑥④ |⑥⑦--|
⑧口口⑧ |⑧--⑨|
28
⑨口口口 |①②-③|
④⑧口③ |--④⑤|
⑤①⑦口 |-⑥⑦⑧|
口②口⑥ |⑨---|
29
口口⑩口 |①②-③|
③⑨⑤② |④--⑤|
④⑥⑦① |⑥-⑦⑧|
口⑧口口 |--⑨⑩|
30
④∨口④ |①-②-③-|
③|口口 |④--⑤|
②|口口 |---⑥|
①⑤口口 |--⑦-|

口口⑦口
口口口口
口口口口
口⑦⑥口
31
口口⑦口 |①②-③|
③⑨⑤② |④--⑤|
④⑥口① |⑥⑦--|
⑧口口⑧ |⑧--⑨|
32
口口口⑨ |①②-③|
③口⑧④ |--④⑤|
口⑦①⑤ |-⑥⑦⑧|
⑥口②口 |⑨---|
33
口⑩口口 |①②-③|
②⑤⑨③ |④--⑤|
①⑦⑥④ |⑥-⑦⑧|
口口⑧口 |--⑨⑩|
34
口口①< |①---|
口口口口 |----|
口口口口 |②---|
口口口口 |③---|

口③②口
口③③口
口③③口
口②口口
35
①③③口 |①---|
口③③② |--②-|
②口口口 |③---|
④⑤口① |④⑤--|
36
口⑤⑤① |①-②③|
口⑤⑤口 |--④-|
④口口② |⑤---|
口口口③ |----|
37
口③③① |①---|
②③③口 |--②-|
口口口② |③---|
①口⑤④ |④⑤--|
38
①口口口 |①②-③|
②⑤<口 |--④-|
口>⑤④ |⑤--⑥|
③口口口 |----|

口口口口
口⑥口口
口口⑥口
口口口口
39
――① |①--②|
口口口口 |--③-|
口口口口 |-④⑤-|
口口口口 |⑥-⑦-|

口口口②
②――<
口口口口
口口口口

口口口口
③口口口
――③
口口口口

⑦口口口
口口口口
⑥口口④
④⑤口口
40
口口①口 |①--②|
口口∧口 |--③-|
口口口口 |④--⑤|
口口口口 |--⑥-|

口口②口
口②口口
口∧口口
口口口口

口口口口
口③口口
口口③口
口口∧口

口口口口
∨口口口
④口④口
口口口口

口口口∨
口口口⑤
⑤口口口
口口口口

⑥口口口
口口口⑥
口口口口
口口口口
41
口③①③ |①-②-|
②口②口 |③-④-|
口①口① |----|
④②④口 |--⑤-|

⑤<⑤<
口口口口
⑤<口口
口口口口
42
①口①口 |①---|
口①口口 |----|
①口口口 |②---|
――② |③---|

口口口口
口口口口
③――<
口口口③
43
口口口口 |①---|
――① |②---|
①口口口 |--③-|
口口口口 |④-⑤-|

口④口口
③口⑤②
口口口口
口②②口
44
口口口① |①---|
口口口| |②-③-|
口口口| |④--⑤|
口口口∧ |--⑥-|

口口口②
口口口口
③④―<
口②②口

口口口口
―⑤口
口⑤口口
口口口口

口⑥口口
口口⑥口
口口口口
口口口口
45
①口①② |①-②-|
④③口④ |③-④-|
②口①② |----|
④③口③ |--⑤-|

口口口⑤
口口口口
⑤口口口
口口口口
46
①<口口 |①---|
口口口∨ |②---|
口口口① |③-④-|
口口口口 |⑤---|

②口口口
口③④口
口④③②
⑤口②⑤
47
①――< |①--②|
口口口口 |--③-|
口口口口 |-④⑤-|
口口口口 |⑥-⑦-|

②口口口
――②
口口口口
口口口口

口口口口
口口口③
③――<
口口口口

口口口⑦
口口口口
④口口⑥
口口⑤④
48
口①口口 |①--②|
口∧口口 |----|
口口口口 |③--④|
口口口口 |--⑤-|

口②口口
口口②∨
口②口③
口口口口

∨口口口
④口口口
口口口④
口口口口

口口口⑤
⑤口口口
口口口口
口口口口
49
⑤①③口 |①-②-|
口③①② |③-④-|
①②④⑤ |----|
口④②口 |--⑤-|
50
口口>① |①---|
∨口口口 |②---|
①口口口 |③-④-|
口口口口 |⑤---|

口口口②
口④③口
②③④口
⑤②口⑤
51
――① |①--②|
口口口口 |--③-|
口口口口 |-④⑤-|
口口口口 |⑥-⑦-|

口口口②
②――<
口口口口
口口口口

口口口口
③口口口
――③
口口口口

⑦口口口
口口口口
⑥口口④
④⑤口口
52
口口口口 |①-②-|
∨①②口 |----|
③②①口 |③--④|
口口口口 |--⑤-|

口口口∨
口口口④
④口口口
口口口口

⑤口口口
口口口⑤
口口口口
口口口口
53
口③①口 |①-②-|
口①③口 |③-④-|
④②④② |----|
③②④① |--⑤-|

口口口口
口口口口
口口口口
口口口⑤
54
――① |①-②-③-|
⑥口口口 |④-⑤-|?
⑤②③口 |-⑥--|?
口①④口 |⑦---|?

⑦口口⑦
口⑦⑦口
口口口口
口口口口
55
⑥①②口 |①--②|
口口⑥⑤ |--③④|
③⑤口口 |-⑤-⑥|
①④口② |--⑦-|

口口口口
口口口口
口口⑦口
⑦口口口
56
⑧④口⑤ |①②-③|
⑦口⑥口 |-④⑤⑥|
③⑧口① |-⑦-⑧|
口⑦②口 |-⑨⑩-|

口口口口
口口口口
口口口⑨
口口⑩口
57
口①②⑥ |①--②|
⑤⑥口口 |--③④|
③口⑤口 |-⑤-⑥|
①④口② |-⑦⑧⑨|

⑦口口口
口口⑨口
口⑧口口
口口口口
58
口②③∨ |①-②③|
口⑤口⑦ |-④⑤⑥|
④口⑥口 |⑦-⑧-|
口口口① |⑨-⑩-|

∨口口口
⑨口口⑧
口口口口
口口⑧口

口口口口
⑩口口口
口口口口
口⑩口口
59
口②①⑥ |①--②|
⑤⑥口口 |--③④|
口口⑤③ |-⑤-⑥|
②口④① |--⑦-|

口口口口
口口口口
口⑦口口
口口口⑦
60
⑤口④⑧ |①②-③|
口⑥口⑦ |-④⑤⑥|
①口⑧③ |-⑦-⑧|
口②⑦口 |-⑨⑩-|

口口口口
口口口口
⑨口口口
口⑩口口
61
⑥②①⑦ |①--②|
口⑨⑥⑤ |--③④|
口⑤⑧③ |-⑤-⑥|
②口④① |-⑦⑧⑨|
62
⑧③②⑦ |①-②③|
⑧口⑤口 |-④⑤⑥|
口⑥口④ |⑦⑧-⑨|
①口口口 |⑩-⑪⑫|

口口口口
口口口⑩
⑨口口口
⑨口⑫⑪
63
口口①口 |①---|
口①③口 |--②-|
口②①③ |③---|
②①口口 |④-⑤-|

口④口口
④⑤口口
口口⑤口
口口口口
64
⑦⑥口① |①-②-|
⑥⑦⑤口 |③④⑤-|
口④口⑧ |⑥-⑦-|
③口⑧② |--⑧-|
65
口②⑤口 |①--②|
口④⑥⑤ |--③-|
④⑥③口 |④---|
①口口③ |⑤-⑥-|
66
①口⑥⑦ |①-②-|
口⑤⑦⑥ |③④⑤-|
口口④口 |⑥-⑦-|
②口口③ |⑧⑨⑩-|

⑧口口口
⑨口口口
⑩口口口
口口口口
67
口⑤②口 |①--②|
⑤⑥④口 |--③-|
口③⑥④ |④---|
③口口① |⑤-⑥-|
68
⑦⑥口① |①-②-|
⑥⑦⑤口 |③④⑤-|
口④口⑧ |⑥-⑦-|
③口⑧② |--⑧-|
69
口②⑤口 |①--②|
口④⑥⑤ |--③-|
④⑥③口 |④---|
①口口③ |⑤-⑥-|
70
①口⑥⑦ |①-②-|
⑧⑤⑦⑥ |③④⑤-|
口⑨④口 |⑥-⑦-|
②口⑩③ |⑧⑨⑩-|
71
②②⑤⑤ |①---|
口②⑤口 |②---|
①口①口 |③④--|
③①④① |⑤--⑥|

⑥口口口
口口口口
口口口口
口口口口
72
口口口口 |--①-|
③口④口 |②--③|
⑤⑥②① |④-⑤-|
⑥⑥②② |⑥---|
73
②②⑤⑤ |①---|
口②⑤口 |②---|
口口口口 |③④--|
③口④① |⑤--⑥|

⑥口口口
口口口口
口口口口
口口口口
74
口口口口 |-①②-|
口⑥⑤口 |③④--|
口②③① |⑤⑥-⑦|
④口③③ |-⑧--|

⑧口口⑧
⑦口口⑦
⑧口口⑧
口口口口
75
口口口口 |----|
口口口口 |----|
口口口口 |----|
口口口口 |----|
76
口①口口 |①---|
口①①口 |----|
口①①口 |----|
口口口口 |----|
最終更新:2019年11月12日 11:39