アットウィキロゴ
Sakura Sunrise [ 2 ]
Ryu☆

EXTREME

Level: 9.5
BPM: 181
Notes(hold): 636(51)

1
口口口口 |----|
口口口口 |----|
口口口口 |----|
口口口口 |----|
2
口口⑥口 |①-②-|
口⑤④⑦ |③---|
口口②口 |④-⑤-|
口③口① |⑥-⑦-|
3
口②口口 |①-②-|
③口⑤口 |③-④-|
⑦④①口 |⑤---|
口⑥口口 |⑥-⑦-|
4
口口口口 |①-②-|
口①口口 |③---|
口③②口 |④-⑤-|
口口口口 |⑥-⑦-|

口口⑥口
口⑦④⑤
口口口口
口口口口
5
口②口口 |①---|
②口口口 |②---|
口⑤①③ |③---|
④口③口 |④-⑤-|
6
口口⑥口 |①-②-|
口⑤④⑦ |③---|
口口②口 |④-⑤-|
口③口① |⑥-⑦-|
7
口②口口 |①-②-|
③口⑤口 |③-④-|
⑦④①口 |⑤---|
口⑥口口 |⑥-⑦-|
8
口口口口 |①-②-|
口①口口 |③---|
口③②口 |④-⑤-|
口口口口 |⑥-⑦-|

口口⑥口
口⑦④⑤
口口口口
口口口口
9
⑤④⑤③ |--①-|
④口④口 |②-③-|
⑤④⑤口 |--④-|
①口口② |⑤---|
10
⑦口⑤口 |①-②-|
口②口口 |③---|
口⑥口④ |④-⑤-|
③①口口 |⑥-⑦-|
11
口>⑤口 |①-②-|
④口②⑤ |③-④-|
口口口∧ |⑤---|
口③口① |⑥-⑦-|

⑦口⑥口
口⑥口⑥
口口⑥口
口口口口
12
口②⑤口 |①-②-|
口口④⑥ |③---|
③①口⑦ |④-⑤-|
口口口口 |⑥-⑦-|
13
口口口口 |①---|
②∨口 |②---|
②口②口 |③---|
∧②<① |④-⑤-|

口口口口
⑤③口口
③③③口
④③口口
14
口⑤口⑦ |①-②-|
口口②口 |③---|
④口⑥口 |④-⑤-|
口口①③ |⑥-⑦-|
15
口⑤<口 |①-②-|
⑤②口④ |③-④-|
∧口口口 |⑤---|
①口③口 |⑥-⑦-|

口⑥口⑦
⑥口⑥口
口⑥口口
口口口口
16
口口②口 |①-②-|
⑤口口⑦ |③---|
口口①③ |④-⑤-|
口④⑥口 |⑥-⑦-|
17
②⑤④③ |--①-|
④口①⑤ |②-③-|
⑤①口④ |--④-|
③④⑤② |⑤---|
18
口⑦口口 |①-②-|
④②⑥口 |③---|
口⑤①口 |④-⑤-|
口口口③ |⑥-⑦-|
19
③口⑤< |①-②-|
⑤>⑤ |③-④-|
③口口④ |⑤---|
①口①② |⑥-⑦-|

口⑦⑥口
口⑥口⑥
口口⑥口
口口口口
20
口口口② |①-②-|
口⑤口⑥ |③---|
口①口③ |④-⑤-|
口④口⑦ |⑥-⑦-|
21
②>②口 |①---|
∧口∨口 |②---|
②<②口 |③---|
①口①口 |④-⑤-|

③④③⑤
口③口口
③口③口
口口口口
22
口口⑦口 |①-②-|
口⑥②④ |③---|
口①⑤口 |④-⑤-|
③口口口 |⑥-⑦-|
23
⑤口③ |①-②-|
⑤<⑤< |③-④-|
④口口③ |⑤---|
②①口① |⑥-⑦-|

口⑥⑦口
⑥口⑥口
口⑥口口
口口口口
24
②口口口 |①-②-|
⑦口口⑤ |③---|
③口①口 |④-⑤-|
口⑥④口 |⑥-⑦-|
25
口④⑤① |--①-|
⑤②③④ |②-③-|
④③②⑤ |--④-|
①⑤④口 |⑤---|
26
④⑧⑦③ |①-②-|
口口口口 |③-④-|
口口口口 |⑤-⑥-|
②⑥⑤① |⑦-⑧-|
27
⑥口口③ |①-②-|
④口口① |③---|
口⑤②口 |④-⑤-|
口口口口 |⑥---|
28
口口①口 |①-②-|
⑥②③① |③-④-|
④⑥⑦口 |⑤-⑥-|
口④⑤口 |⑦---|
29
①②⑦① |①-②-|
口③③④ |③-④-|
⑤口⑥⑤ |⑤-⑥-|
口口口口 |⑦---|
30
口①口② |①-②-|
①③口④ |③-④-|
⑦⑤口⑥ |⑤-⑥-|
⑤⑦口口 |⑦---|
31
②⑤⑥① |①-②-|
④口①③ |③-④-|
⑥口③⑤ |⑤-⑥-|
口口口口 |----|
32
②口口① |①-②-|
④口①③ |③-④-|
⑥口⑦⑤ |⑤-⑥-|
口口⑤⑦ |⑦---|
33
⑦③①⑤ |①-②-|
口口⑦口 |③-④-|
口⑦口口 |⑤-⑥-|
⑥②④⑦ |⑦---|
34
口口口口 |①-②-|
⑤⑨⑦口 |③-④-|
①⑧⑥③ |⑤-⑥⑦|
口②④口 |-⑧⑨-|
35
口③①口 |①-②-|
④⑦⑨② |③-④-|
口⑥⑧⑤ |⑤-⑥⑦|
口口口口 |-⑧⑨-|
36
口口口口 |①-②-|
⑤⑨⑦口 |③-④-|
②⑧⑥④ |⑤-⑥⑦|
口①③口 |-⑧⑨-|
37
④口口③ |①-②-|
口⑦⑨⑤ |③-④-|
口⑥⑧口 |⑤-⑥⑦|
②口口① |-⑧⑨-|
38
口口口口 |①-②-|
⑤⑨⑦口 |③-④-|
①⑧⑥③ |⑤-⑥⑦|
口②④口 |-⑧⑨-|
39
口③①口 |①-②-|
④⑦⑨② |③-④-|
口⑥⑧⑤ |⑤-⑥⑦|
口口口口 |-⑧⑨-|
40
口口口口 |①-②-|
⑤⑨⑦口 |③-④-|
②⑧⑥④ |⑤-⑥⑦|
口①③口 |-⑧⑨-|
41
④口口③ |①-②-|
口⑦⑨⑤ |③-④-|
口⑥⑧口 |⑤-⑥⑦|
②口口① |-⑧⑨-|
42
口口口口 |①---|
①口口② |----|
∧口口口 |②---|
口口口① |----|
43
①口口 |①---|
口口口③ |②---|
口口口② |③---|
口口口① |----|
44
口口∨口 |①---|
口②①口 |----|
口口口口 |②---|
口口口口 |----|
45
口口口口 |①---|
口口口口 |----|
口①<口 |②---|
口口口口 |----|

口②口口
②②②口
口②口口
口口口口
46
口口口口 |①---|
③口口 |②---|
②口口口 |③---|
∧①<口 |④---|

口口口口
口④口口
④口④口
口④口口
47
口口口口 |①---|
口>③口 |②---|
口②口口 |③---|
口∧①< |④---|

口口口口
口口④口
口④口④
口口④口
48
③⑮②⑭ |①②③④|
⑪⑦⑩⑥ |⑤⑥⑦⑧|
①⑬④⑯ |⑨⑩⑪⑫|
⑨⑤⑫⑧ |⑬⑭⑮⑯|
49
口口③④ |--①-|
口②④③ |②-③-|
①⑤②口 |--④-|
⑤①口口 |⑤---|
50
③④⑤④ |--①-|
②⑤④⑤ |②-③-|
①④⑤④ |--④-|
口①②③ |⑤---|
51
口⑤⑥口 |①-②-|
④口口⑦ |③---|
①口口口 |④-⑤-|
口②③口 |⑥-⑦-|
52
∨口口口 |①-②-|
⑤口口口 |③-④-|
④⑥口① |⑤-⑥-|
口③②口 |⑦-⑧-|

口⑦口口
⑦⑧⑦口
口口口口
口口口口
53
口⑤⑦⑦ |①-②-|
口口⑤② |③---|
④⑥⑥口 |④-⑤-|
①④①③ |⑥-⑦-|
54
口⑤<口 |①-②-|
⑤②口④ |③-④-|
∧口口口 |⑤---|
①口③口 |⑥-⑦-|

口⑥口⑦
⑥口⑥口
口⑥口口
口口口口
55
口口②口 |①-②-|
口口口口 |③---|
①口①③ |④-⑤-|
口口口口 |⑥-⑦-|

口⑤口口
⑥④口口
⑦口口口
口口口口
56
口口口① |①---|
口∨②< |②---|
口②口② |③---|
①>②∧ |④-⑤-|

口口口口
口口③⑤
口③③③
口口③④
57
⑦⑦⑤口 |①-②-|
②⑤口口 |③---|
①⑥⑥④ |④-⑤-|
③①④口 |⑥-⑦-|
58
口>⑤口 |①-②-|
④口②⑤ |③-④-|
口口口∧ |⑤---|
口③口① |⑥-⑦-|

⑦口⑥口
口⑥口⑥
口口⑥口
口口口口
59
口②口口 |①-②-|
⑦口①⑤ |③---|
③①口口 |④-⑤-|
口⑥④口 |⑥-⑦-|
60
②④④③ |--①-|
口⑤①口 |②-③-|
⑤①⑤口 |--④-|
③⑤口② |⑤---|
61
口口⑦口 |①-②-|
②⑥②④ |③---|
口①⑤① |④-⑤-|
③口③口 |⑥-⑦-|
62
⑤口③ |①-②-|
⑤<⑤< |③-④-|
④口口③ |⑤---|
②①口① |⑥-⑦-|

口⑥⑦口
⑥口⑥口
口⑥口口
口口口口
63
②口口口 |①-②-|
⑥②⑤口 |③---|
④口①③ |④-⑤-|
⑦①③口 |⑥-⑦-|
64
口②<② |①---|
口∨口∧ |②---|
口②>② |③---|
口①口① |④-⑤-|

⑤③④③
口口③口
口③口③
口口口口
65
口⑦口口 |①-②-|
④②⑥② |③---|
①⑤①口 |④-⑤-|
口③口③ |⑥-⑦-|
66
③口⑤< |①-②-|
⑤>⑤ |③-④-|
③口口④ |⑤---|
①口①② |⑥-⑦-|

口⑦⑥口
口⑥口⑥
口口⑥口
口口口口
67
②⑥⑦口 |①-②-|
④口口⑤ |③---|
③①口口 |④-⑤-|
口口口口 |⑥-⑦-|
68
口口口⑤ |--①-|
口口①④ |②-③-|
口①③② |--④-|
⑤④②③ |⑤---|
69
∨①<口 |①---|
①①①口 |----|
①∧口 |----|
口口口口 |----|
70
口口口口 |----|
口口口口 |----|
口口口口 |----|
口口口口 |----|
71
口口口口 |----|
口口口口 |----|
口口口口 |----|
口口口口 |----|
72
口①口口 |①---|
①口①口 |----|
口①口口 |----|
口口口口 |----|
最終更新:2019年11月08日 03:01