アットウィキロゴ
Arena Deiporta
BEMANI Sound Team "Akhuta Works"

BASIC

Level: 4
BPM: 189
Notes: 277

1
口口口口 |----|
口口口口 |----|
口口口口 |----|
口口口口 |----|
2
口口口口 |----|
口口口口 |----|
口口口口 |----|
口口口口 |----|
3
口口口口 |----|
口口口口 |----|
口口口口 |----|
口口口口 |----|
4
口口口口 |----|
口口口口 |----|
口口口口 |----|
口口口口 |----|
5
口口口口 |----|
口口口口 |----|
口口口口 |----|
口口口口 |----|
6
口口口口 |①---|
口口口口 |②---|
④口口② |③---|
③口口① |④---|
7
口口口口 |①---|
口口口口 |②---|
口④②口 |③---|
口③①口 |④---|
8
口④④② |①---|
③口口① |②---|
口口口口 |③---|
口口口口 |--④-|
9
口口口口 |----|
口①①口 |①---|
口口口口 |----|
口②②口 |②---|
10
③口口① |①---|
④口口② |②---|
口口口口 |③---|
口口口口 |④---|
11
口③①口 |①---|
口④②口 |②---|
口口口口 |③---|
口口口口 |④---|
12
口口口口 |①---|
口口口口 |②---|
③口口① |③---|
口④④② |--④-|
13
口②②口 |----|
口口口口 |①---|
口①①口 |----|
口口口口 |②---|
14
①口口① |----|
口口口口 |----|
口口口口 |①---|
口口口口 |----|
15
口口口口 |----|
①口口① |----|
口口口口 |①---|
口口口口 |----|
16
口口口口 |----|
口口口口 |----|
①口口① |①---|
口口口口 |----|
17
口口口口 |----|
口口口口 |----|
口口口口 |----|
口口口口 |----|
18
口口口口 |----|
①口口① |----|
口口口口 |①---|
口口口口 |----|
19
口口口口 |----|
口口口口 |----|
①口口① |①---|
口口口口 |----|
20
口口口口 |----|
口口口口 |----|
口口口口 |①---|
①口口① |----|
21
口口口口 |----|
口口口口 |----|
口①①口 |①---|
口口口口 |----|
22
口口口口 |----|
口口口口 |----|
口口口口 |----|
口口口口 |----|
23
口口①① |①---|
口口口口 |----|
口口口口 |----|
口口口口 |----|
24
口口口口 |----|
口口①口 |----|
口②口口 |①---|
口口口口 |--②-|
25
口口口口 |----|
口口口口 |①---|
口口口口 |----|
口口①口 |----|
26
口口口口 |----|
口口口口 |----|
口口口口 |----|
口口口口 |----|
27
①①口口 |①---|
口口口口 |----|
口口口口 |----|
口口口口 |----|
28
口口口口 |----|
口①口口 |----|
口口②口 |①---|
口口口口 |--②-|
29
口口口口 |----|
口口口口 |①---|
口口口口 |----|
口①口口 |----|
30
口口口口 |----|
口口口口 |----|
①口口① |①---|
口口口口 |----|
31
②②①① |①---|
口口口口 |----|
口口口口 |②---|
口口口口 |----|
32
口口口口 |----|
口口①口 |----|
口②口口 |①---|
口口口口 |--②-|
33
口口口口 |----|
口口口口 |①---|
口口口口 |----|
口口①口 |----|
34
口口口口 |①---|
口口口口 |--②-|
①口口② |----|
口口口口 |----|
35
①①②② |①---|
口口口口 |----|
口口口口 |②---|
口口口口 |----|
36
口口口口 |----|
口①口口 |----|
口口②口 |①---|
口口口口 |--②-|
37
口口口口 |----|
口口口口 |①---|
口口口口 |----|
口①口口 |----|
38
口口口口 |①---|
②口口② |----|
口①①口 |②---|
口口口口 |----|
39
口①①口 |①---|
口①①口 |----|
口口口口 |----|
口口口口 |----|
40
口口口口 |----|
口口口口 |----|
口口口口 |----|
口口口口 |----|
41
口口口口 |①---|
口口口口 |----|
口口口口 |----|
口①①口 |----|
42
口口口口 |①---|
口口口口 |----|
口①①口 |----|
口口口口 |----|
43
①①②② |①---|
口口口口 |----|
口口口口 |②---|
口口口口 |----|
44
口口口口 |----|
口①口口 |----|
口口②口 |①---|
口口口口 |--②-|
45
口口口口 |----|
口口口口 |①---|
口口口口 |----|
口①口口 |----|
46
口口口口 |①---|
口口口口 |--②-|
②口口① |----|
口口口口 |----|
47
②②①① |①---|
口口口口 |----|
口口口口 |②---|
口口口口 |----|
48
口口口口 |----|
口口①口 |----|
口②口口 |①---|
口口口口 |--②-|
49
口口口口 |----|
口口口口 |①---|
口口口口 |----|
口口①口 |----|
50
②口口② |①---|
口口口口 |----|
口①①口 |②---|
口口口口 |----|
51
口口口口 |①---|
口③①口 |----|
口口口口 |②---|
口口②口 |③---|
52
口口口口 |----|
口口口③ |①---|
口口口② |②---|
口①口口 |③---|
53
④③②① |①---|
口口口口 |②---|
口口口口 |③---|
口口口口 |④---|
54
口口口口 |①---|
口口口口 |----|
口①①口 |----|
口口口口 |----|
55
口口口口 |①---|
口①③口 |----|
口口口口 |②---|
口②口口 |③---|
56
口口口口 |----|
③口口口 |①---|
②口口口 |②---|
口口①口 |③---|
57
①②③④ |①---|
口口口口 |②---|
口口口口 |③---|
口口口口 |④---|
58
口④④口 |①---|
口③③口 |②---|
口②②口 |③---|
口①①口 |④---|
59
口口口① |----|
口口口口 |①---|
口口口口 |----|
口口口口 |----|
60
①口口口 |①---|
口口口口 |----|
口口②口 |--②-|
口口口口 |----|
61
口口口口 |①---|
口口口② |----|
口①口口 |②---|
口口口口 |----|
62
②口口② |①---|
口①口口 |----|
口口口口 |②---|
口口口口 |----|
63
口口①口 |①---|
口②口口 |----|
口口口口 |②---|
口口口口 |----|
64
口口口口 |①---|
口口口口 |----|
口口①口 |②---|
口②口口 |----|
65
口口口① |①---|
②口口口 |----|
口口口口 |②---|
口口口口 |----|
66
口口口口 |①---|
口口口口 |----|
口口口① |②---|
②口口口 |----|
67
口口口口 |①---|
口①①口 |----|
口①①口 |----|
口口口口 |----|
68
口口口口 |----|
口口口口 |----|
口口口口 |----|
口口口口 |----|
69
④口口④ |①---|
③口口③ |②---|
②口口② |③---|
①口口① |④---|
70
口口口口 |①---|
口①①口 |②---|
口②②口 |③---|
口③③口 |----|
71
④口③③ |①---|
②口①① |②---|
口口口口 |③---|
口口口口 |④---|
72
口口口口 |①---|
口①①口 |②---|
④②②④ |③---|
口③③口 |④---|
73
③③口④ |①---|
①①口② |②---|
口口口口 |③---|
口口口口 |④---|
74
④口口④ |①---|
③口口③ |②---|
口②②口 |③---|
口①①口 |④---|
75
口口口口 |①---|
口口口口 |②---|
④口③③ |③---|
②口①① |④---|
76
口①①口 |①---|
口②②口 |②---|
口③③口 |③---|
口④④口 |④---|
77
②口口② |①---|
①口口① |②---|
③口口③ |③---|
④口口④ |④---|
78
口③口口 |①---|
口②③口 |②---|
口①②口 |③---|
口口①口 |----|
79
口口口① |①---|
口口②口 |--②-|
口③口口 |----|
口口口口 |③---|
80
口①①口 |--①-|
口口口口 |----|
口口口口 |②---|
口②②口 |----|
81
①口口口 |①---|
口②口口 |--②-|
口口③口 |----|
口口口口 |③---|
82
口①①口 |--①-|
口口口口 |----|
口口口口 |②---|
口②②口 |----|
83
口口口① |①---|
口口②口 |--②-|
口③口口 |----|
口口口口 |③---|
84
口①①口 |--①-|
口口口口 |----|
口口口口 |②---|
口②②口 |----|
85
②②②② |①---|
①①①① |----|
口口口口 |②---|
口口口口 |----|
86
口口口口 |①---|
口口口口 |----|
①①①① |②---|
②②②② |----|
87
口①①口 |①---|
口①①口 |----|
口口口口 |----|
口口口口 |----|
88
①口口① |----|
口口口口 |----|
口口口口 |①---|
口口口口 |----|
89
口口口口 |----|
①口口① |----|
口口口口 |①---|
口口口口 |----|
90
口口口口 |----|
口口口口 |----|
①口口① |①---|
口口口口 |----|
91
口口口口 |----|
口①①口 |----|
口口口口 |①---|
口口口口 |----|

accuracy: 100%
最終更新:2022年03月26日 03:20