アットウィキロゴ
Arena Deiporta
BEMANI Sound Team "Akhuta Works"

ADVANCED

Level: 7
BPM: 189
Notes: 499

1
口口口口 |----|
口口口口 |----|
口口口口 |----|
口口口口 |----|
2
口口口口 |----|
口口口口 |----|
口口口口 |----|
口口口口 |----|
3
口口口口 |----|
口口口口 |----|
口口口口 |----|
口口口口 |----|
4
口口口口 |----|
口口口口 |----|
口口口口 |----|
口口口口 |----|
5
口口口口 |----|
口口口口 |----|
口口口口 |----|
口口口口 |----|
6
⑥⑥口口 |①-②-|
④口口⑤ |③---|
口口③③ |④-⑤-|
口②①口 |⑥---|
7
口⑥⑤口 |①-②-|
⑦口口④ |③---|
口口③③ |④-⑤-|
口②①口 |⑥-⑦-|
8
⑦⑦口口 |①-②-|
口④⑤⑥ |③---|
口口③③ |④-⑤-|
口②①口 |⑥-⑦-|
9
③口口③ |----|
口②②口 |①---|
口口口口 |②---|
①口口① |③---|
10
口口⑥⑥ |①-②-|
⑤口口④ |③---|
③③口口 |④-⑤-|
口①②口 |⑥---|
11
口⑤⑥口 |①-②-|
④口口⑦ |③---|
③③口口 |④-⑤-|
口①②口 |⑥-⑦-|
12
口口⑦⑦ |①-②-|
⑥⑤④口 |③---|
③③口口 |④-⑤-|
口①②口 |⑥-⑦-|
13
③口口③ |----|
口②②口 |①---|
口口口口 |②---|
①口口① |③---|
14
口口口口 |----|
口口口口 |----|
口口口口 |①---|
①①①① |----|
15
①①①① |----|
口口口口 |----|
口口口口 |①---|
口口口口 |----|
16
口口口口 |----|
口口口口 |----|
口口口口 |①---|
①①①① |----|
17
口口口口 |----|
①口口① |----|
口口口口 |①---|
口口口口 |----|
18
①①①① |----|
口口口口 |----|
口口口口 |①---|
口口口口 |----|
19
口口口口 |----|
口口口口 |----|
口口口口 |①---|
①①①① |----|
20
①①①① |----|
口口口口 |----|
口口口口 |①---|
口口口口 |----|
21
口口口口 |----|
口口口口 |----|
①口口① |①---|
口口口口 |----|
22
口口口口 |----|
口口口口 |----|
口口口口 |----|
口口口口 |----|
23
口口②① |①---|
口口口① |----|
口口口口 |②---|
口口口口 |----|
24
口①口口 |①---|
口口口④ |②---|
口②④③ |③---|
口口③口 |--④-|
25
口口口① |----|
口口①口 |①---|
口口口口 |----|
口口口口 |----|
26
口口口口 |①---|
①①口口 |----|
口口口口 |②---|
②②口口 |----|
27
①②口口 |①---|
①口口口 |----|
口口口口 |②---|
口口口口 |----|
28
口口①口 |①---|
④口口口 |②---|
③④②口 |③---|
口③口口 |--④-|
29
①口口口 |----|
口①口口 |①---|
口口口口 |----|
口口口口 |----|
30
口口口口 |①---|
口口①① |----|
口口口口 |②---|
口②②口 |----|
31
②口③① |①---|
口口口① |--②-|
口口口口 |③---|
④口口口 |④---|
32
口①口口 |①---|
口口口④ |②---|
口②④③ |③---|
口口③口 |--④-|
33
③口④① |----|
口口①口 |①---|
口②口口 |②-③-|
口口口口 |--④-|
34
口口口口 |--①-|
口口口④ |--②-|
①②③④ |--③-|
①②③口 |--④-|
35
①③口② |①---|
①口口口 |--②-|
口口口口 |③---|
口口口④ |④---|
36
口口①口 |①---|
④口口口 |②---|
③④②口 |③---|
口③口口 |--④-|
37
①口口③ |----|
口①口口 |①---|
④口②口 |②-③-|
口口口口 |--④-|
38
口①口口 |①---|
口口口口 |--②-|
口②②口 |③---|
口③③口 |----|
39
口口口① |①---|
口口口① |----|
口口口口 |----|
口口口口 |----|
40
①口口口 |①---|
①口口口 |----|
口口口口 |----|
口口口口 |----|
41
口口口口 |①---|
口口口口 |----|
口口口① |----|
口口口① |----|
42
口口口口 |①---|
口口口口 |----|
①口口口 |②---|
①②②口 |----|
43
③口④① |①---|
口口口① |②-③-|
口口②口 |④---|
⑤口口口 |⑤---|
44
口①口口 |①---|
④口口⑤ |②---|
口②⑤③ |③---|
口口③口 |④-⑤-|
45
④口⑤② |--①-|
口口②口 |②---|
口③口口 |③-④-|
①口口口 |--⑤-|
46
口口口口 |--①-|
口口口④ |--②-|
①②③④ |--③-|
①②③口 |--④-|
47
①④口③ |①---|
①口口口 |②-③-|
口②口口 |④---|
口口口⑤ |⑤---|
48
口口①口 |①---|
⑤口口④ |②---|
③⑤②口 |③---|
口③口口 |④-⑤-|
49
②口口④ |--①-|
口②口口 |②---|
⑤口③口 |③-④-|
口口口① |--⑤-|
50
⑤①口⑤ |①-②-|
口④④② |③-④-|
口口口口 |⑤---|
口口③口 |----|
51
④口口口 |①---|
口口口③ |②---|
口口口② |③---|
口口口① |④---|
52
口口口③ |①---|
①口④口 |②---|
②⑤口口 |③-④-|
⑥口口口 |⑤-⑥-|
53
口①①口 |①---|
④口口③ |②---|
④口口③ |③---|
口②②口 |④---|
54
口①①口 |①---|
口①①口 |--②-|
口口口口 |----|
口口②口 |----|
55
口口口④ |①---|
③口口口 |②---|
②口口口 |③---|
①口口口 |④---|
56
③口口口 |①---|
口④口① |②---|
口口⑤② |③-④-|
口口口⑥ |⑤-⑥-|
57
口①①口 |①---|
③口口④ |②---|
③口口④ |③---|
口②②口 |④---|
58
口①⑧口 |①-②-|
口③⑥口 |③-④-|
口⑤④口 |⑤-⑥-|
口⑦②口 |⑦-⑧-|
59
①口口口 |----|
口①口口 |①---|
口口口口 |----|
口口口口 |----|
60
口①口① |①--②|
口③口③ |--③-|
口口④口 |----|
口②口② |④---|
61
口口口① |①---|
口口①口 |----|
口②口口 |②---|
②口口口 |----|
62
②口口② |①---|
②口口② |----|
口口口口 |②---|
口①①口 |----|
63
口口②② |①---|
口口口口 |----|
口①①口 |②---|
①口口① |----|
64
①①口口 |①---|
口口口口 |----|
口口口口 |②---|
口②②口 |----|
65
①口口① |①---|
口①①口 |----|
口口口口 |②---|
②②口口 |----|
66
口②②口 |①---|
口口口口 |----|
口口口口 |②---|
口口①① |----|
67
口口口口 |①---|
口口口口 |----|
口口口口 |----|
①①①① |----|
68
口口口口 |----|
口口口口 |----|
口口口口 |----|
口口口口 |----|
69
②②⑦⑦ |①-②-|
④④⑤⑤ |③-④-|
⑥⑥③③ |⑤-⑥-|
⑧⑧①① |⑦-⑧-|
70
②②口口 |①-②-|
④④⑤口 |③-④-|
口⑤③③ |⑤---|
口口①① |----|
71
③①③① |①---|
口口口口 |②---|
口口口口 |③---|
④④②② |④---|
72
口口口口 |①-②-|
④⑧⑦③ |③-④-|
②⑥⑤① |⑤-⑥-|
口口口口 |⑦-⑧-|
73
③③①① |①---|
口口口口 |②---|
口口口口 |③---|
④②②④ |④---|
74
口口口口 |①-②-|
②⑥⑤① |③-④-|
④⑧⑦③ |⑤-⑥-|
口口口口 |⑦-⑧-|
75
①③①③ |①---|
口口口口 |②---|
口口口口 |③---|
②②④④ |④---|
76
口口口口 |①-②-|
③⑦⑧④ |③-④-|
①⑤⑥② |⑤-⑥-|
口口口口 |⑦-⑧-|
77
①①②② |①---|
口口口口 |②---|
③口口④ |③---|
口③④口 |④---|
78
③口口③ |①---|
口②②口 |②---|
口①①口 |③---|
口口口口 |----|
79
口口①⑦ |①-②-|
口⑥②口 |③-④-|
口⑤③口 |⑤-⑥-|
口④口口 |⑦---|
80
口口口口 |--①-|
④⑤⑥口 |②-③-|
口③②① |④-⑤-|
口口口口 |⑥---|
81
口口⑦① |①-②-|
⑥口口② |③-④-|
⑤口口③ |⑤-⑥-|
④口口口 |⑦---|
82
④⑤⑥口 |--①-|
口口口口 |②-③-|
口口口口 |④-⑤-|
口③②① |⑥---|
83
⑦口口口 |①-②-|
口④⑤⑥ |③-④-|
③②①口 |⑤-⑥-|
口口口口 |⑦---|
84
口③口口 |--①-|
口②④口 |②-③-|
口①⑤口 |④-⑤-|
口口⑥口 |⑥---|
85
⑦⑦②② |①-②-|
③③④④ |③-④-|
⑤⑤⑧⑧ |⑤-⑥-|
①①⑥⑥ |⑦-⑧-|
86
⑦⑦②② |①-②-|
③③④④ |③-④-|
⑤⑤⑧⑧ |⑤-⑥-|
①①⑥⑥ |⑦-⑧-|
87
口口①口 |①---|
口口口口 |----|
口口口口 |----|
口①口口 |----|
88
口口口口 |----|
口①①口 |----|
口口口口 |①---|
①口口① |----|
89
①口口① |----|
口口口口 |----|
口①①口 |①---|
口口口口 |----|
90
口口口口 |----|
口①①口 |----|
口口口口 |①---|
①口口① |----|
91
口①①口 |----|
口①①口 |----|
口①①口 |①---|
口口口口 |----|

accuracy: 100%
最終更新:2022年03月26日 03:20