アットウィキロゴ
Arena Deiporta
BEMANI Sound Team "Akhuta Works"

EXTREME

Level: 10.4
BPM: 189
Notes: 840

1
口口口口 |----|
口口口口 |----|
口口口口 |----|
口口口口 |----|
2
⑧①⑧① |①-②-|
④③②口 |③-④-|
口⑤⑥⑦ |⑤-⑥-|
口口口口 |⑦-⑧-|
3
口口口⑦ |①-②-|
⑧⑥⑤④ |③-④-|
口⑦口口 |⑤-⑥-|
①②③口 |⑦-⑧-|
4
口①口⑧ |①-②-|
⑦口口④ |③-④-|
口⑥③口 |⑤-⑥-|
⑤口口② |⑦-⑧-|
5
口②口⑨ |①-②-|
⑧口①口 |③-④-|
⑥口④⑦ |⑤-⑥-|
口⑤口③ |⑦⑧⑨-|
6
②口⑧⑦ |①-②-|
口①口⑦ |③-④-|
⑤口④口 |⑤-⑥-|
口⑥③③ |⑦-⑧-|
7
口①⑦⑧ |①-②-|
②⑥⑦口 |③-④-|
⑤⑥③③ |⑤-⑥-|
口口④口 |⑦-⑧-|
8
①⑧口口 |①-②-|
⑧⑤⑥⑦ |③-④-|
口口③口 |⑤-⑥-|
②④③口 |⑦-⑧-|
9
⑥⑭⑨③ |--①②|
⑫⑩口⑬ |③④⑤⑥|
⑧口⑦① |⑦⑧⑨⑩|
②④⑤⑪ |⑪⑫⑬⑭|
10
⑦⑧口② |①-②-|
⑦口①口 |③-④-|
口④口⑤ |⑤-⑥-|
③③⑥口 |⑦-⑧-|
11
⑧⑦①口 |①-②-|
口⑦⑥② |③-④-|
③③⑥⑤ |⑤-⑥-|
口④口口 |⑦-⑧-|
12
口口⑧① |①-②-|
⑦⑥⑤⑧ |③-④-|
口③口口 |⑤-⑥-|
口③④② |⑦-⑧-|
13
③⑨⑭⑥ |--①②|
⑬口⑩⑫ |③④⑤⑥|
①⑦口⑧ |⑦⑧⑨⑩|
⑪⑤④② |⑪⑫⑬⑭|
14
口口口③ |①---|
口①口口 |②---|
口口口口 |③---|
口②②③ |----|
15
①口口口 |----|
口口口口 |----|
口口口口 |①---|
①口口口 |----|
16
口口口① |----|
口口口口 |----|
口口口口 |①---|
口口口① |----|
17
口口口口 |----|
口口口口 |----|
①口口① |①---|
口口口口 |----|
18
③①①口 |①---|
口口④口 |②---|
口口口口 |③---|
③②②口 |--④-|
19
口⑤口③ |--①-|
口口口口 |②---|
②①口口 |③---|
口口④③ |④-⑤-|
20
③口口口 |-①--|
口口①口 |②---|
口口口② |③---|
③口口口 |----|
21
④①①④ |①---|
①口口① |②---|
③口口③ |③---|
⑤②②⑤ |④-⑤-|
22
口口口口 |----|
口口口口 |----|
口口口口 |----|
口口口口 |----|
23
④④口① |①---|
口口口口 |②-③-|
口口②① |④---|
口③⑤⑤ |⑤---|
24
⑧③口① |--①-|
⑤⑥⑦口 |②-③-|
②口口④ |④-⑤⑥|
口口口口 |⑦-⑧-|
25
口⑤④⑨ |①②③-|
口口口④ |④---|
⑥⑦⑧口 |⑤-⑥⑦|
口③②① |⑧-⑨-|
26
②口口口 |①-②-|
口⑥④口 |③-④-|
口口⑦口 |⑤-⑥-|
③⑤①⑧ |⑦-⑧-|
27
①口④④ |①---|
口口口口 |②-③-|
①②口口 |④---|
⑤⑤③口 |⑤---|
28
①口③⑧ |--①-|
口⑦⑥⑤ |②-③-|
④口口② |④-⑤⑥|
口口口口 |⑦-⑧-|
29
口⑨④口 |①②③-|
④口口口 |④---|
口⑥⑦⑧ |⑤-⑥⑦|
①②③⑤ |⑧-⑨-|
30
④口口口 |①-②-|
⑥口③① |③-④-|
口口口口 |⑤---|
⑤②口⑤ |--⑥-|
31
④④口① |①---|
口⑤③口 |②-③-|
口口②① |④---|
口③⑤⑤ |⑤---|
32
⑧③⑧① |--①-|
⑤⑥⑦口 |②-③-|
②④口④ |④-⑤⑥|
①口口口 |⑦-⑧-|
33
口④口⑨ |①②③-|
口口口④ |④---|
⑥⑦⑧⑤ |⑤-⑥⑦|
口③②① |⑧-⑨-|
34
②口⑤口 |①-②-|
⑦⑥⑧④ |③-④-|
口口⑦④ |⑤-⑥-|
③⑤①⑧ |⑦-⑧-|
35
①口④④ |①---|
口口⑤口 |②-③-|
①②口③ |④---|
⑤⑤③口 |⑤---|
36
①⑧③⑧ |--①-|
口⑦⑥⑤ |②-③-|
④口④② |④-⑤⑥|
口口口① |⑦-⑧-|
37
④⑧④口 |①②③-|
④口口口 |④---|
⑥⑦⑥⑤ |⑤-⑥-|
①②③口 |⑦-⑧-|
38
⑤口口⑤ |①-②③|
口②③④ |④-⑤-|
口口口口 |⑥---|
⑥①①⑥ |----|
39
③①①口 |①---|
口口口口 |②---|
口④口② |③---|
口①①口 |④---|
40
口口口口 |①---|
口③口① |②---|
口口口口 |③---|
④口②口 |④---|
41
口③①口 |①---|
口口口口 |②---|
口口口口 |③---|
④口口② |④---|
42
③口④口 |①---|
口②口口 |②---|
口口①口 |③---|
口口口口 |--④-|
43
口口口④ |①---|
③口⑤④ |②-③-|
⑤②③口 |④---|
⑤①口① |⑤---|
44
①②⑤⑧ |--①-|
口④⑥③ |②-③-|
口口⑦⑧ |④-⑤⑥|
口④口① |⑦-⑧-|
45
口⑥口口 |①②③-|
③⑦口④ |④---|
②⑧口口 |⑤-⑥⑦|
①⑤④⑨ |⑧-⑨-|
46
③口⑦② |①-②-|
⑤口⑥口 |③-④-|
①⑦⑧⑤ |⑤-⑥-|
⑧④④口 |⑦-⑧-|
47
⑤①口① |①---|
⑤②口口 |②-③-|
③口⑤④ |④---|
口③口④ |⑤---|
48
口④口① |--①-|
口口⑦⑧ |②-③-|
口④⑥③ |④-⑤⑥|
①②⑤⑧ |⑦-⑧-|
49
①⑥④④ |①②③-|
②⑦口⑧ |④---|
③⑥口④ |⑤-⑥-|
口⑤口口 |⑦-⑧-|
50
⑥⑥口口 |①-②③|
①口②口 |④-⑤-|
①口③⑤ |⑥---|
⑥⑥④口 |----|
51
⑨口⑦② |①-②③|
⑩⑥口③ |④-⑤-|
口口⑤④ |⑥-⑦-|
⑧口口① |⑧-⑨⑩|
52
口④⑥⑤ |①-②-|
⑪⑫③口 |③-④-|
①②口口 |⑤⑥⑦⑧|
⑦⑧⑩⑨ |⑨⑩⑪⑫|
53
口⑤口⑥ |①-②③|
口⑨口口 |④-⑤-|
②③④① |⑥-⑦-|
⑦口⑧口 |⑧-⑨-|
54
③⑦⑤口 |①②③④|
④口⑥口 |⑤⑥⑦-|
口⑦口① |----|
口⑨⑧② |⑧-⑨-|
55
⑧口口① |①-②③|
口口⑤④ |④-⑤-|
⑩⑥口③ |⑥-⑦-|
⑨口⑦② |⑧-⑨⑩|
56
⑦⑧⑩⑨ |①-②-|
①②口口 |③-④-|
⑪⑫③口 |⑤⑥⑦⑧|
口④⑥⑤ |⑨⑩⑪⑫|
57
⑦口⑧口 |①-②③|
②③④① |④-⑤-|
口⑨口口 |⑥-⑦-|
口⑤口⑥ |⑧-⑨-|
58
口③口② |①-②-|
口③口② |③-④-|
④口①口
④口①口

⑥口⑥口
⑦口⑤口
口⑦口⑧ |⑤-⑥-|
口⑤⑧⑤ |⑦-⑧-|
59
口①口① |----|
口口口口 |①---|
①口①口 |----|
口口口口 |----|
60
①口②⑥ |①--②|
③①②⑤ |--③-|
口③口④ |--④-|
②口③① |⑤-⑥-|
61
口①口口 |①---|
口口口口 |----|
①口口口
口口口口

⑤口⑤⑥
③④口④
⑦口⑦⑥ |②-③-④-|
③②口② |⑤-⑥-⑦-|
62
口②口口 |①---②-|
口口①口 |--③---|
口④口口 |④---|
口口③口 |----|
63
①口③② |①-②③|
口⑦⑤④ |④⑤⑥-|
口口⑧⑥ |⑦-⑧-|
⑩⑪口⑨ |⑨-⑩⑪|
64
口⑥⑤④ |①②③-|
③口口⑪ |④-⑤-|
①②⑩⑨ |⑥-⑦⑧|
口口⑧⑦ |⑨⑩⑪-|
65
④⑤口③ |①-②-|
⑥⑦②口 |③-④⑤|
⑧①口口 |⑥⑦⑧-|
口口⑩⑨ |⑨-⑩-|
66
口口③② |①-②③|
口口⑤④ |④⑤⑥-|
口口口⑥
口①口口

口⑦口口
口口口口
口口口口 |⑦---⑧-|
⑧⑨⑨⑧ |--⑨---|
67
①口口① |①---|
口口口口 |----|
口①①口 |----|
口口口口 |----|
68
口口口口 |----|
口③①口 |----|
口口口口 |①--②|
③②②① |--③-|
69
⑥⑤②③ |①-②-|
④口口① |③-④-|
⑤⑥③② |⑤-⑥-|
⑦⑧口口 |⑦-⑧-|
70
⑤口②② |①-②-|
③③口⑤ |③-④-|
⑤口④① |⑤---|
口口①④ |----|
71
口①口④ |①---|
③口②口 |②-③-|
口⑤口⑥ |④---|
口①口④ |⑤-⑥-|
72
④①①⑩ |①-②③|
口③⑦⑤ |④-⑤-|
口⑧②口 |⑥-⑦⑧|
⑨⑥⑥口 |⑨-⑩-|
73
口口口口 |①---|
①②口口 |②-③-|
①口口口
口口口③

④④口口
⑧口口⑤
口口⑥口 |④-⑤⑥|
口⑦口口 |⑦-⑧-|
74
④口①① |①-②-|
口④③口 |③-④-|
②②口③
口口口口

口⑧口⑪
⑫口口⑤
口口⑨口 |⑤⑥⑦⑧|
⑥⑩口⑦ |⑨⑩⑪⑫|
75
④口①口 |①---|
口②口③ |②-③-|
⑥口⑤口 |④---|
④口①口 |⑤-⑥-|
76
⑩①①④ |①-②③|
⑤⑦③口 |④-⑤-|
口②⑧口 |⑥-⑦⑧|
口⑥⑥⑨ |⑨-⑩-|
77
口口口口 |①---|
口口②① |②-③-|
①口口①
①③口口

口口④④
⑤口口⑧
口⑥口口 |④-⑤⑥|
口口⑦口 |⑦-⑧-|
78
①①④④ |①-②-|
⑤③③口 |③-④-|
⑤口②② |⑤---|
⑥⑦⑧⑨ |⑥⑦⑧⑨|
79
口④口⑤ |①-②③|
口③口口 |④-⑤-|
口②口①
口口口口

⑨口口口
⑥口口口
⑦口⑪⑩ |⑥⑦⑧-|
⑧口口口 |⑨-⑩⑪|
80
口③④⑤ |①-②-|
⑧⑨⑦口 |③④⑤-|
⑥①口口 |⑥-⑦-|
⑥⑧②口 |⑧-⑨-|
81
①口⑥⑨ |①-②③|
口口⑦④ |④-⑤-|
口⑤⑧③ |⑥⑦⑧-|
口⑪⑩② |⑨-⑩⑪|
82
③④⑤口 |①-②-|
⑥⑨口口 |③④⑤-|
⑥⑧⑧② |⑥-⑦-|
①口口⑦ |⑧-⑨-|
83
口⑤口④ |①-②③|
⑥口口③ |④-⑤-|
⑦⑩⑪② |⑥⑦⑧-|
⑧口①⑨ |⑨-⑩⑪|
84
②⑦口⑧ |①-②-|
⑤④③⑥ |③④⑤-|
⑨口口① |⑥-⑦-|
口口口口 |⑧-⑨-|
85
④⑤④⑥ |①-②-|
④⑥⑤⑧ |③-④-|
⑦②③① |⑤-⑥-|
③①②① |⑦-⑧-|
86
⑧口口口 |①-②-|
⑦⑦⑤口 |③-④-|
⑥①③① |⑤-⑥-|
⑤④③② |⑦-⑧-|
87
口口口① |①---|
口口口① |----|
口口口① |----|
口口口① |----|
88
口口口② |①---|
①口口口 |②---|
口口口口
口②①口

③口口口
口④口口
口⑤⑥口 |③-④⑤|
③口⑦口 |-⑥⑦-|
89
④③②⑤ |--①-|
口口⑦① |②③④-|
⑥口⑧口 |⑤---|
口口口⑤ |⑥-⑦⑧|
90
④口③口 |-①②-|
口口口口 |③---|
口①口口 |④---|
④②口口 |----|
91
口⑦⑤口 |----|
②口口③ |----|
④口口① |①②③④|
口⑥⑧口 |⑤⑥⑦⑧|

accuracy: 100%
最終更新:2022年03月26日 03:20