アットウィキロゴ
ALL MY HEART -この恋に、わたしの全てを賭ける- [ 2 ]
SUPER HEROINE 彩香-AYAKA-

EXTREME

Level: 9.2
BPM: 160
Notes(hold): 702(44)

1
□□□□ |----|
□□□□ |----|
□□□□ |----|
□□□□ |----|
2
④④⑦⑦ |①--②|
⑥⑧□⑤ |③-④-|
①□□③ |⑤⑥--|
①□②① |⑦-⑧-|
3
④④⑦⑦ |①--②|
⑥⑧□⑤ |③-④-|
①□□③ |⑤⑥--|
①□②① |⑦-⑧-|
4
④④⑦⑦ |①--②|
⑥⑧□⑤ |③-④-|
①□□③ |⑤⑥--|
①□②① |⑦-⑧-|
5
④④⑤⑦ |①--②|
□⑧⑥⑤ |③-④-|
①□□③ |⑤--⑥|
①□②① |⑦-⑧-|
6
④④⑦⑦ |①--②|
⑥⑧□⑤ |③-④-|
①②□③ |⑤⑥--|
①②□① |⑦-⑧-|
7
④④□⑦ |①--②|
⑤⑧⑥⑤ |③-④-|
①②□③ |⑤--⑥|
①②□① |⑦-⑧-|
8
④④⑦⑦ |①--②|
⑥⑧□⑤ |③-④-|
②①□③ |⑤⑥--|
②①□① |⑦-⑧-|
9
③③⑥⑥ |①--②|
□□□□ |--③-|
①②⑤④ |④--⑤|
①②⑤④ |--⑥-|
10
□③⑦⑦ |①②--|
③①④② |③-④-|
⑨④⑩□ |⑤⑥-⑦|
□⑥⑧⑤ |-⑧⑨⑩|
11
④④□⑤ |①②--|
③①□② |③-④-|
□③□⑥ |⑤-⑥-|
⑧⑦⑨□ |⑦⑧-⑨|
12
□③⑦⑦ |①②--|
③①④② |③-④-|
⑨④⑩□ |⑤⑥-⑦|
□⑥⑧⑤ |-⑧⑨⑩|
13
④④□⑤ |①②--|
③①□② |③-④-|
□③□⑥ |⑤-⑥-|
□⑨⑦⑧ |⑦⑧-⑨|
14
⑦⑦③□ |①②--|
②④①③ |③-④-|
□⑩④⑨ |⑤⑥-⑦|
⑤⑧⑥□ |-⑧⑨⑩|
15
⑤□④④ |①②--|
②□①③ |③-④-|
⑥□③□ |⑤-⑥-|
□⑨⑦⑧ |⑦⑧-⑨|
16
⑦⑦③□ |①②--|
②④①③ |③-④-|
□⑩④⑨ |⑤⑥-⑦|
⑤⑧⑥□ |-⑧⑨⑩|
17
□□②① |①②③④|
③④⑥⑤ |-⑤-⑥|
□□□□ |-⑦-⑧|
□□⑤⑥ |⑨-⑩-|

⑧⑦□⑨
□□□□
⑦⑧□□
□⑩□□
18
□□□□ |①---|
①④□□ |②-③-|
∧∧□□ |④---|
□□③⑥ |⑤-⑥-|

□□□□
②⑤□□
□□□□
□□□□
19
□□□□ |①---|
□□①□ |②-③-|
□□∧□ |④-⑤-|
□□□□ |⑥-⑦-|

□⑥④□
□□②□
□⑦⑤③
□□□□
20
①④□□ |①---|
∧∧□□ |②-③-|
□□③⑥ |④---|
□□□□ |⑤-⑥-|

②⑤□□
□□□□
□□□□
□□□□
21
□□①□ |①---|
□□∧□ |②-③-|
□□□□ |④-⑤-|
□□□□ |⑥-⑦-|

□□②□
□④⑥□
□□□□
③⑤⑦□
22
③②①③ |①--②|
②⑤④① |--③-|
⑤①②④ |--④-|
□⑦⑥□ |⑤-⑥⑦|
23
④□①③ |-①--|
□⑥□□ |②-③-|
⑦②⑤□ |④-⑤-|
□□□□ |⑥-⑦-|
24
□□□∨ |①---|
①□□< |②-③-|
□□□□ |④---|
□□□④ |⑤-⑥-|

□□□□
③□□□
□⑥③□
□②⑤⑥
25
∨□□□ |①②--|
□□□□ |③-④-|
□□□□ |⑤-⑥-|
①□□□ |⑦-⑧-|

⑦⑥②⑦
□④⑤□
□□③□
④□⑧□
26
□□□□ |①---|
□□④① |②-③-|
□□∧∧ |④---|
□□□□ |⑤-⑥-|

⑤□□□
□□⑤②
②□□□
⑥③□□
27
□□□□ |①---|
□①□□ |②-③-|
□∧□□ |④-⑤-|
□□□□ |⑥-⑦-|

□④⑥□
③②□②
□⑤⑦□
□□□□
28
□□④① |①---|
□□∧∧ |②-③-|
□□□□ |④---|
□□□□ |⑤-⑥-|

⑤□⑤②
②□□□
⑥③□□
□□□□
29
□①□□ |①---|
□∧□□ |②-③-|
□□□□ |④-⑤-|
□□□□ |⑥-⑦-|

□②□②
□⑥④□
□□□③
□⑦⑤□
30
③①②③ |①--②|
①④⑤② |--③-|
④②①⑤ |--④-|
□⑥⑦□ |⑤-⑥⑦|
31
③①□⑤ |-①--|
⑥□④□ |②-③-|
□④②⑥ |④--⑤|
⑤□□□ |--⑥-|
32
①□□ |①---|
□□□□ |--②-|
□□□□ |--③-|
□□①< |④-⑤-|

□②③□
□④②③
□②④□
□□②□

∨□□□
□□□□
⑤□□□
□⑤□<
33
⑥④□① |-①--|
□⑤③□ |②-③-|
③□□② |④-⑤-|
□③□⑦ |⑥-⑦-|
34
□⑤②① |①-②-|
□⑥□□ |③-④-|
⑧□□□ |⑤⑥-⑦|
□④③⑦ |--⑧-|
35
③□□< |①--②|
□□□□ |--③-|
□□□□ |--④-|
③□□< |--⑤⑥|

④□□□
□□①②
□⑥①②
④□⑤□
36
⑤⑥□⑦ |①-②-|
①□□② |③-④-|
④□□⑧ |⑤⑥-⑦|
□□□③ |--⑧-|
37
③□□< |①--②|
②①□□ |--③-|
②①□□ |--④-|
③□□< |⑤-⑥-|

④□⑥□
□⑥□⑤
□□⑤□
④□□□
38
⑤⑥④③ |①---|
⑥⑤③④ |--②-|
①②□□ |③-④-|
②①□□ |⑤-⑥-|
39
□□□□ |--①-|
□②□□ |----|
□③①② |②---|
①□□③ |③---|
40
①□□ |①-②-|
①<□□ |③-④-|
□□□□ |⑤-⑥-|
□□□□ |⑦-⑧-|

⑧⑤①⑧
⑤⑦②□
□⑥③□
□⑤④□
41
⑫⑯⑮⑪ |①②③④|
⑩⑭⑬⑨ |⑤⑥⑦⑧|
④⑧⑦③ |⑨⑩⑪⑫|
②⑥⑤① |⑬⑭⑮⑯|
42
□⑥⑦③ |--①-|
⑤⑦⑥③ |②-③④|
①⑤④② |--⑤-|
②□④① |⑥-⑦-|
43
③□□□ |--①-|
③□□□ |②-③④|
②④□① |--⑤-|
①④□② |⑥-⑦-|

□□⑦⑥
□□□⑤
□□⑥⑦
□□⑤□
44
①□□ |①--②|
□□□□ |--③-|
①<□□ |--④-|
□□□□ |--⑤-|

□□□□
③□□□
□□□□
∧③□<

□②□□
④②②□
②⑤⑤□
□④□□
45
⑤⑦⑧① |①-②-|
⑥④③□ |③-④-|
⑤□□② |⑤-⑥-|
⑤□□① |⑦-⑧-|
46
□□□∨ |①---|
□□∨① |--②-|
□□①□ |----|
□□□□ |--③-|

□□□□
□□③②
②③②□
□②□□
47
□□①□ |①---|
④①□③ |②---|
④□□③ |③---|
②③④② |④---|
48
②>③□ |①--②|
□②②③ |--③-|
□①①∧ |④-⑤-|
□□□① |⑥-⑦-|

□□□□
□□□□
□□⑦□
④⑤⑥□
49
□□②□ |①-②-|
③④□② |③-④-|
②①□□ |⑤-⑥-|
□□□□ |⑦⑧--|

□□□□
□□⑤□
□⑧⑥□
□□⑦□
50
①⑥⑦② |--①-|
③①②□ |②-③④|
③⑤④□ |--⑤-|
②④⑤① |⑥-⑦-|
51
②⑦⑥① |--①-|
□②①③ |②-③④|
□④⑤③ |--⑤-|
①⑤④② |⑥-⑦-|
52
③∨□① |①--②|
□③①□ |--③-|
□②③□ |--④-|
②□∧③ |--⑤-|

□□□□
□④⑤□
□□④⑤
□□□□
53
□②□① |①---|
②□□□ |②---|
□②□□ |③---|
②□①□ |④---|

③□□④
□③④□
③□□④
□③④□
54
□□□□ |①---|
∨□③□ |--②-|
□□□□ |③--④|
④□∧□ |--⑤-|

□□①□
□□④①
□②①⑤
⑤□□①
55
□□①□ |①---|
□①□⑤ |--②-|
⑤□□□ |③--④|
□>③② |--⑤-|

④□□□
□□□□
□□□□
□□④□
56
□□①< |①---|
①□□ |----|
□□①< |----|
①□□ |----|
57
□□□□ |①---|
□□①< |----|
①□□ |----|
□□□□ |②---|

□□②□
□②②□
□②②□
□②□□
58
④④⑦⑦ |①--②|
⑥⑧□⑤ |③-④-|
①□□③ |⑤⑥--|
①□②① |⑦-⑧-|
59
④④⑦⑦ |①--②|
⑥⑧□⑤ |③-④-|
①□□③ |⑤⑥--|
①□②① |⑦-⑧-|
60
④④⑦⑦ |①--②|
⑥⑧□⑤ |③-④-|
①□□③ |⑤⑥--|
①□②① |⑦-⑧-|
61
④④⑤⑦ |①--②|
□⑧⑥⑤ |③-④-|
①□□③ |⑤--⑥|
①□②① |⑦-⑧-|
62
④④⑦⑦ |①--②|
⑥⑧□⑤ |③-④-|
①②□③ |⑤⑥--|
①②□① |⑦-⑧-|
63
④④□⑦ |①--②|
⑤⑧⑥⑤ |③-④-|
①②□③ |⑤--⑥|
①②□① |⑦-⑧-|
64
④④⑦⑦ |①--②|
⑥⑧□⑤ |③-④-|
②①□③ |⑤⑥--|
②①□① |⑦-⑧-|
65
⑫⑪⑩⑨ |①②③④|
⑥□□⑤ |-⑤-⑥|
⑧□□⑦ |-⑦-⑧|
①②③④ |⑨⑩⑪⑫|
66
□□□□ |①---|
□①①□ |----|
□①①□ |----|
□□□□ |----|
最終更新:2021年06月21日 03:44