アットウィキロゴ
ビター・エスケープ
やぎぬまかな

BASIC

Level: 3
BPM: 152
Notes: 288

1
口口口口 |----|
口口口口 |----|
口口口口 |----|
口口口口 |----|
2
①口口① |①---|
口②②口 |----|
口③③口 |--②-|
口口口口 |--③-|
3
口口口口 |----|
口口口口 |----|
口口口口 |----|
口口口口 |----|
4
①口口① |①---|
口②②口 |----|
口③③口 |--②-|
口口口口 |--③-|
5
口口口口 |----|
②口口② |----|
①口口① |①---|
口口口口 |②---|
6
①口口① |①---|
口口口口 |----|
口口口口 |----|
口口口口 |----|
7
口口口口 |①---|
口口口口 |②---|
③④②① |③---|
口口口口 |④---|
8
口口口口 |①---|
口口口口 |②---|
口口口口 |③---|
③④②① |④---|
9
口口口口 |①---|
②②②② |----|
口①①口 |②---|
口口口口 |----|
10
口口口① |①---|
口口口② |----|
口口口口 |②---|
口口口口 |----|
11
口口口口 |①---|
口口口口 |----|
口口口① |②---|
口口口② |----|
12
口口口口 |①---|
口口口口 |----|
口口口口 |②---|
口②①口 |----|
13
口口口口 |①---|
口②②口 |----|
口①①口 |②---|
口口口口 |----|
14
①口口口 |①---|
②口口口 |----|
口口口口 |②---|
口口口口 |----|
15
口口口口 |①---|
口口口口 |----|
①口口口 |②---|
②口口口 |----|
16
口口口口 |①---|
口口口口 |----|
口口口口 |②---|
口①②口 |----|
17
口口口口 |①---|
口②②口 |----|
口①①口 |②---|
口口口口 |----|
18
①①①① |①---|
口口口口 |----|
口口口口 |----|
口口口口 |----|
19
口口口口 |①---|
口口口口 |②---|
③④②① |③---|
口口口口 |④---|
20
口口口口 |①---|
口口口口 |②---|
口口口口 |③---|
③④②① |④---|
21
口口口口 |①---|
②②②② |----|
口①①口 |②---|
口口口口 |----|
22
口口②① |①---|
口口口口 |----|
口口口口 |②---|
口口口口 |----|
23
②①口口 |①---|
口口口口 |----|
口口口口 |②---|
口口口口 |----|
24
口口口口 |①---|
①口口口 |----|
②口口口 |②---|
口口口口 |----|
25
口口口口 |①---|
口口口口 |----|
口②②口 |②---|
口①①口 |----|
26
①②口口 |①---|
口口口口 |----|
口口口口 |②---|
口口口口 |----|
27
口口①② |①---|
口口口口 |----|
口口口口 |②---|
口口口口 |----|
28
口口口口 |①---|
口口口① |----|
口口口② |②---|
口口口口 |----|
29
口口口口 |①---|
口口口口 |----|
②②②② |②---|
口①①口 |----|
30
口口口口 |①---|
④③②① |②---|
口口口口 |③---|
口口口口 |④---|
31
口口口口 |①---|
口口口口 |②---|
①②③④ |③---|
口口口口 |④---|
32
口口口口 |①---|
口①①口 |----|
口②②口 |②---|
口口口口 |----|
33
口口口口 |①---|
口口口口 |----|
口口口③ |②---|
口①①② |③---|
34
口口口口 |①---|
口口口① |----|
③口口口 |②---|
②口口口 |③---|
35
口口口口 |①---|
①口③口 |----|
口口②口 |②---|
口口口口 |③---|
36
②口①② |①---|
③口口③ |--②-|
口口口口 |----|
口口口口 |③---|
37
口口口口 |--①-|
口口口口 |----|
①口②① |----|
口口口口 |②---|
38
口口口口 |①---|
①②③④ |②---|
口口口口 |③---|
口口口口 |④---|
39
口口口口 |①---|
口口口口 |②---|
④③②① |③---|
口口口口 |④---|
40
口口口口 |①---|
口①①口 |----|
口②②口 |②---|
口口口口 |----|
41
口口口口 |①---|
口口口口 |----|
③口口口 |②---|
②①①口 |③---|
42
口口口口 |①---|
①口口口 |----|
口口口③ |②---|
口口口② |③---|
43
口口口口 |①---|
口③口① |----|
口②口口 |②---|
口口口口 |③---|
44
②①口② |①---|
③口口③ |--②-|
口口口口 |----|
口口口口 |③---|
45
口口口口 |--①-|
口口口口 |----|
口①①口 |----|
口①①口 |----|
46
③④②① |①---|
口口口口 |②---|
口口口口 |③---|
口口口口 |④---|
47
口口口口 |①---|
口①①口 |----|
口②②口 |②---|
口口口口 |----|
48
口口口口 |①---|
口口口口 |②---|
③④②① |③---|
口口口口 |④---|
49
②②②② |①---|
口①①口 |----|
口口口口 |②---|
口口口口 |----|
50
口口①① |----|
②②口口 |①---|
口口口口 |----|
口口口口 |②---|
51
口口口口 |----|
口口口口 |①---|
口口①① |----|
②②口口 |②---|
52
口口口口 |①---|
口①①口 |----|
口②②口 |②---|
口口口口 |----|
53
口口口口 |①---|
口口口口 |----|
口口口③ |②---|
口①①② |③---|
54
口口口口 |①---|
口口①① |----|
③口口口 |②---|
②口口口 |③---|
55
口口口口 |①---|
①①③口 |----|
口口②口 |②---|
口口口口 |③---|
56
②①①② |①---|
③口口③ |--②-|
口口口口 |----|
口口口口 |③---|
57
口口口口 |--①-|
口口口口 |----|
①口②① |----|
口口口口 |②---|
58
口口口口 |①---|
①②③④ |②---|
口口口口 |③---|
口口口口 |④---|
59
口口口口 |①---|
口口口口 |②---|
④③②① |③---|
口口口口 |④---|
60
口口口口 |①---|
口①①口 |----|
口②②口 |②---|
口口口口 |----|
61
口口口口 |①---|
口口口口 |----|
③口口口 |②---|
②①①口 |③---|
62
口口口口 |①---|
①①口口 |----|
口口口③ |②---|
口口口② |③---|
63
口口口口 |①---|
口③①① |----|
口②口口 |②---|
口口口口 |③---|
64
②①①② |①---|
③口口③ |--②-|
口口口口 |----|
口口口口 |③---|
65
口口口口 |--①-|
口口口口 |----|
口①①口 |----|
口①①口 |----|
66
③④②① |①---|
口口口口 |②---|
口口口口 |③---|
口口口口 |④---|
67
口口口口 |①---|
口①①口 |----|
口②②口 |②---|
口口口口 |----|
68
口口口口 |①---|
口口口口 |②---|
③④②① |③---|
口口口口 |④---|
69
②②②② |①---|
口①①口 |----|
口口口口 |②---|
口口口口 |----|
70
口口口口 |①---|
①口口① |②---|
②口口② |----|
口口口口 |----|
71
口口口口 |①---|
口口口口 |②---|
口②②口 |----|
口①①口 |----|
72
口口口口 |①---|
口口口口 |②---|
③④②① |③---|
口口口口 |④---|
73
②②②② |①---|
口①①口 |----|
口口口口 |②---|
口口口口 |----|
74
口口口口 |①---|
①口口① |----|
口②②口 |--②-|
口③③口 |--③-|
75
口口口口 |----|
口口口口 |----|
口口口口 |----|
口口口口 |----|
76
③③③③ |①---|
口②②口 |----|
①口口① |②---|
口口口口 |--③-|

accuracy: 99.5%
最終更新:2024年09月08日 17:09