アットウィキロゴ
ビター・エスケープ
やぎぬまかな

ADVANCED

Level: 6
BPM: 152
Notes: 559

1
口口口口 |----|
口口口口 |----|
口口口口 |----|
口口口口 |----|
2
口③④口 |①---|
口口口口 |②---|
②口口① |--③-|
②④③① |--④-|
3
口口口口 |----|
口口口口 |----|
口①①口 |--①-|
口口口口 |----|
4
②④③① |①---|
②口口① |②---|
口口口口 |--③-|
口③④口 |--④-|
5
口口口口 |----|
口口口口 |----|
②口口② |①---|
①口口① |②---|
6
口②①口 |①---|
②口口① |--②-|
③口口③ |----|
口口口口 |③---|
7
②口口③ |①-②-|
口①①口 |③---|
口③②口
口口口口

口口口口
口⑦⑥口
口口口口 |④-⑤-|
⑤口口④ |⑥-⑦-|
8
②口口① |①-②-|
口⑥⑤口 |--③-|
⑦③③④ |④-⑤-|
口口口口 |⑥-⑦-|
9
口③③口 |--①-|
②口口② |-②--|
口④④口 |③--④|
①口口① |----|
10
口口口① |①--②|
口口口② |--③-|
口⑤口③ |--④-|
④口⑥口 |⑤-⑥-|
11
①口口口 |①--②|
②⑥口口 |--③-|
③口⑤口 |--④-|
口口口④ |⑤-⑥-|
12
口口⑤① |①--②|
口口口② |--③-|
口⑥口③ |--④-|
④口口口 |⑤-⑥-|
13
①⑥⑤② |①--②|
③⑤⑥口 |--③-|
②④④口 |--④-|
口口①③ |⑤-⑥-|
14
口⑥口① |①--②|
口口口② |--③-|
口口⑤③ |--④-|
④口口口 |⑤-⑥-|
15
①口⑥口 |①--②|
②口口口 |--③-|
③⑤口口 |--④-|
口口口④ |⑤-⑥-|
16
口口口① |①--②|
口⑤口② |--③-|
④口⑥③ |--④-|
口口口口 |⑤-⑥-|
17
①③④② |①--②|
口⑥⑥口 |--③-|
口⑤⑤口 |-④--|
②④③① |⑤-⑥-|
18
①口口① |①---|
口口口口 |----|
①口口① |----|
口口口口 |----|
19
②口口③ |①-②-|
口①①口 |③---|
口③②口
口口口口

口口口口
口⑦⑥口
口口口口 |④-⑤-|
⑤口口④ |⑥-⑦-|
20
②口口① |①-②-|
口⑥⑤口 |--③-|
⑦③③④ |④-⑤-|
口口口口 |⑥-⑦-|
21
口③③口 |--①-|
②口口② |-②--|
口④④口 |③--④|
①口口① |----|
22
口口口① |①--②|
口⑥口② |--③-|
④口口③ |--④-|
口口⑤口 |⑤-⑥-|
23
①口口口 |①--②|
②口⑥口 |--③-|
③口口④ |--④-|
口⑤口口 |⑤-⑥-|
24
口⑥口① |①--②|
口口⑤② |--③-|
口④口③ |--④-|
口口口口 |⑤-⑥-|
25
①⑤⑥② |①--②|
③⑥⑤口 |--③-|
②④④口 |--④-|
口口①③ |⑤-⑥-|
26
口⑥口① |①--②|
口口口② |--③-|
④口⑤③ |--④-|
口口口口 |⑤-⑥-|
27
①口⑥口 |①--②|
②口口口 |--③-|
③⑤口④ |--④-|
口口口口 |⑤-⑥-|
28
口口口① |①--②|
④口口② |--③-|
⑥口口③ |--④-|
口口⑤口 |⑤-⑥-|
29
①口口② |--①-|
口③③口 |-②--|
口③③口 |③---|
②口口① |----|
30
①①①① |①---|
③口口③ |②-③-|
⑤②②④ |--④-|
口⑤④口 |--⑤-|
31
口①②口 |--①-|
①口口② |--②-|
口口口口 |--③-|
口③③口 |----|
32
①口口① |①---|
口③③口 |②-③-|
①②②①
口口口口

口口口口
④口口④
⑤口口⑤ |--④-|
口口口口 |--⑤-|
33
口口口口 |--①-|
⑤口口④ |----|
口③②口 |②-③-|
①口口① |④-⑤-|
34
口口①口 |①---|
口②口⑤ |②---|
④口口口 |--③-|
口口口③ |④-⑤-|
35
①⑤口口 |①---|
口口④口 |②---|
口③口② |--③-|
口口口口 |④-⑤-|
36
口口口① |①---|
②口口③ |--②-|
口口口口 |----|
口②③口 |③---|
37
①口口① |--①-|
口②②口 |--②-|
口③③口 |----|
口口口口 |③---|
38
①①①① |①---|
③口口③ |②-③-|
②口口②
口口口口

口口口⑤
口口⑤口
口口④口 |--④-|
口口口④ |--⑤-|
39
①口口口 |--①-|
③①口③ |--②-|
口②口口 |--③-|
②口口口 |----|
40
①③③① |①---|
口①①④ |②---|
口②②口 |--③-|
口口口口 |--④-|
41
口口口口 |①-②-|
⑤口口⑥ |----|
①③④口 |③-④-|
口口口② |⑤-⑥-|
42
口①口口 |①---|
⑤口②口 |②---|
口口口④ |--③-|
③口口口 |④-⑤-|
43
口口⑤① |①---|
口④口口 |②---|
②口③口 |--③-|
口口口口 |④-⑤-|
44
①口口② |①---|
口口口口 |--②-|
口口口口
口②口口

③口口口
口口口口
口口口口 |----|
口口③口 |③---|
45
口口口口 |--①-|
①②②① |--②-|
口②②口 |----|
①口口① |----|
46
②口口① |①-②-|
口⑥⑤口 |--③-|
⑦③③④ |④-⑤-|
口口口口 |⑥-⑦-|
47
①口口② |--①-|
口⑥⑤口 |②---|
口②①口 |③-④-|
④口口③ |⑤-⑥-|
48
②口口① |①-②-|
口⑥⑤口 |--③-|
⑦③③④ |④-⑤-|
口口口口 |⑥-⑦-|
49
口③③口 |--①-|
②口口② |-②--|
口④④口 |③--④|
①口口① |----|
50
口口口口 |①---|
②口①② |②---|
④③口④ |--③-|
②④④② |--④-|
51
口②②口 |--①-|
②③①② |--②-|
口口口口 |--③-|
口口口口 |----|
52
①口口① |①---|
口③③口 |②-③-|
①②②①
口口口口

口口口口
④口口④
⑤口口⑤ |--④-|
口口口口 |--⑤-|
53
口口口口 |--①-|
⑤口口④ |----|
口③②口 |②-③-|
①口口① |④-⑤-|
54
口①①口 |①---|
口②口⑤ |②---|
④口口口 |--③-|
口②口③ |④-⑤-|
55
①①口口 |①---|
口口口口 |②---|
口口②②
口口口口

口⑤口口
口口④口
口③口口 |--③-|
口口口口 |④-⑤-|
56
①口口① |①---|
口口口口 |--②-|
口口口口
②②②②

③③③③
口口口口
口口口口 |----|
口口口口 |③---|
57
口口口口 |--①-|
①②②① |--②-|
口③③口 |----|
①口口① |③---|
58
①①①① |①---|
③口口③ |②-③-|
②口口②
口口口口

⑤⑤⑤口
口口口口
口口口口 |--④-|
口口④口 |--⑤-|
59
口口口口 |--①-|
口②②② |--②-|
口口口口 |--③-|
口①③口 |----|
60
①口⑤① |①---|
④③③④ |②-③-|
①②②① |--④-|
口口口口 |--⑤-|
61
口口口口 |①-②-|
⑤口口⑥ |----|
①③④口 |③-④-|
口口口② |⑤-⑥-|
62
口①①口 |①---|
⑤口②口 |②---|
口口口④ |--③-|
③口②口 |④-⑤-|
63
口口①① |①---|
口口口口 |②---|
②②口口
口口口口

口口⑤口
口④口口
口口③口 |--③-|
口口口口 |④-⑤-|
64
①②③① |①---|
②口口③ |--②-|
③口口② |----|
口③②口 |③---|
65
①口口口 |--①-|
①②②口 |--②-|
口②②① |----|
口口口① |----|
66
②口口① |①-②-|
口⑥⑤口 |--③-|
⑦③③④ |④-⑤-|
口口口口 |⑥-⑦-|
67
①口口② |--①-|
口⑥⑤口 |②---|
口②①口 |③-④-|
④口口③ |⑤-⑥-|
68
②口口① |①-②-|
口⑥⑤口 |--③-|
⑦③③④ |④-⑤-|
口口口口 |⑥-⑦-|
69
口③③口 |--①-|
②口口② |-②--|
口④④口 |③--④|
①口口① |----|
70
口③③口 |①---|
③②②③ |②--③|
①口口① |----|
口口口口 |----|
71
①口口① |①---|
口口口口 |②--③|
③②②③ |----|
口③③口 |----|
72
②口口① |①-②-|
口⑥⑤口 |--③-|
⑦③③④ |④-⑤-|
口口口口 |⑥-⑦-|
73
口③③口 |--①-|
②口口② |-②--|
口④④口 |③--④|
①口口① |----|
74
②口口② |①---|
口①①口 |----|
口口口口 |--②-|
③口口③ |--③-|
75
口口口口 |----|
口口口口 |----|
口①①口 |--①-|
口口口口 |----|
76
④④④④ |①---|
口①①口 |----|
③口口③ |②-③-|
口②②口 |--④-|

accuracy: 99.5%
最終更新:2024年09月08日 17:09