アットウィキロゴ
ビター・エスケープ
やぎぬまかな

EXTREME

Level: 8
BPM: 152
Notes: 745

1
口口口口 |----|
口口口口 |----|
口口口口 |----|
口口口口 |----|
2
口⑥⑤口 |①②--|
⑥口口⑤ |③④--|
⑤②④⑥ |--⑤-|
①⑤⑥③ |--⑥-|
3
口口口口 |----|
口口口口 |----|
口①①口 |--①-|
口口口口 |----|
4
①⑤⑥③ |①②--|
⑤②④⑥ |③④--|
⑥口口⑤ |--⑤-|
口⑥⑤口 |--⑥-|
5
口口口口 |----|
口口口口 |----|
②口口② |①---|
①口口① |②---|
6
口口口口 |①---|
①③③② |--②-|
口口口口 |----|
口①②口 |③---|
7
口口口口 |①-②-|
②⑤⑥③ |③---|
④①①⑦ |④-⑤-|
③口口② |⑥-⑦-|
8
⑤①口⑤ |①②③④|
口口口② |--⑤-|
口③口口
口口口④

口⑨⑧口
口⑦⑩口
⑥⑪口口 |⑥⑦⑧-|
口口⑫口 |⑨⑩⑪⑫|
9
口口口③ |--①-|
②④④口 |-②--|
③④④① |③--④|
①口口② |----|
10
①⑦⑦口 |①--②|
②口口口 |--③-|
③口⑤口 |--④⑤|
口⑥口④ |⑥-⑦-|
11
口口口① |①--②|
口口口② |--③-|
口口口③
口口口口

口⑧⑧⑦
口口⑥口
口⑤口口 |-④⑤⑥|
④口口口 |⑦-⑧-|
12
①⑦⑦口 |①--②|
②口口口 |--③-|
③口⑥④ |-④⑤-|
口⑤口口 |⑥-⑦-|
13
②口口① |①--②|
③①②③ |--③-|
口口口口
①③③②

口⑥⑤口
口⑤⑥口
④口口④ |--④-|
口口口口 |⑤-⑥-|
14
①⑦⑦口 |①--②|
②口⑥口 |--③-|
③⑤口口 |-④⑤-|
口口口④ |⑥-⑦-|
15
口⑧⑧① |①--②|
口口口② |--③-|
口口⑦③ |-④⑤⑥|
④⑤⑥口 |⑦-⑧-|
16
①口口口 |①--②|
②口口口 |--③-|
③口口口
口口口口

⑦口口⑦
口口口口
口⑥口④ |--④⑤|
口口⑤口 |⑥-⑦-|
17
⑤③④⑥ |①--②|
②①②① |--③-|
③⑤⑥④ |-④--|
①④③② |⑤-⑥-|
18
口口口口 |①---|
口①①口 |----|
口口口口 |----|
①口口① |----|
19
口口口口 |①-②-|
②⑤⑥③ |③---|
④①①⑦ |④-⑤-|
③口口② |⑥-⑦-|
20
⑤①口⑤ |①②③④|
口口口② |--⑤-|
口③口口
口口口④

口⑨⑧口
口⑦⑩口
⑥⑪口口 |⑥⑦⑧-|
口口⑫口 |⑨⑩⑪⑫|
21
口口口③ |--①-|
②④④口 |-②--|
③④④① |③--④|
①口口② |----|
22
①⑦⑦口 |①--②|
②口⑥口 |--③-|
③⑤口口 |-④⑤-|
口口口④ |⑥-⑦-|
23
口口口① |①--②|
口口口② |--③-|
口口口③
口口口口

口⑧⑧⑦
口口⑥口
口⑤口口 |-④⑤⑥|
④口口口 |⑦-⑧-|
24
①⑦⑦口 |①--②|
②口口口 |--③-|
③口⑥④ |-④⑤-|
口⑤口口 |⑥-⑦-|
25
②口口① |①--②|
③①②③ |--③-|
口口口口
①③③②

口⑥⑤口
口⑤⑥口
④口口④ |--④-|
口口口口 |⑤-⑥-|
26
①口口口 |①--②|
②口口口 |--③-|
③口口口
口口口口

⑦⑧⑧口
口⑥口口
口口⑤口 |-④⑤⑥|
口口口④ |⑦-⑧-|
27
口⑧⑧① |①--②|
口口口② |--③-|
口口⑦③ |-④⑤⑥|
④⑤⑥口 |⑦-⑧-|
28
①口口口 |①--②|
②口口口 |--③-|
③口口口
口口口口

⑧口口⑧
口⑦口口
口⑥口口 |-④⑤⑥|
口口⑤④ |⑦-⑧-|
29
口②①口 |--①-|
①③③② |-②--|
②③③① |③---|
口①②口 |----|
30
①①①① |①---|
③④⑤③ |②-③-|
口②②口 |--④-|
④⑤口口 |--⑤-|
31
口③②口 |--①-|
口口口① |--②-|
口口③② |--③-|
口口①口 |----|
32
④口口④ |①---|
⑤①①⑤ |②-③-|
口③③口 |--④-|
①②②① |--⑤-|
33
口口⑤口 |--①-|
口④口口 |----|
①口③① |②-③-|
口②口口 |④-⑤-|
34
①口口① |①---|
口⑦⑥口 |②-③-|
②口口⑤ |④-⑤-|
口③④口 |⑥-⑦-|
35
①口口① |①---|
②口口⑦ |②-③-|
口③⑥口 |④-⑤-|
④口口⑤ |⑥-⑦-|
36
①③③① |①---|
②口口③ |--②-|
②口口③ |----|
口②②口 |③---|
37
①口口① |--①-|
口②②口 |--②-|
③①①③ |----|
口口口口 |③---|
38
①①①① |①---|
③口口③ |②-③-|
口②②口
口口口口

口⑤口口
口④口口
⑤口口口 |--④-|
④口口口 |--⑤-|
39
口口②口 |--①-|
口口①③ |--②-|
口②口口 |--③-|
口①③口 |----|
40
口口口口 |①---|
③①①③ |②-③-|
②口口②
①口口①

⑤④④口
口⑤口口
口口口口 |--④-|
口口口口 |--⑤-|
41
口口口口 |①-②-|
口口①口 |----|
②口口①
口②口口

口⑥口口
口口⑤口
口④口口 |③-④-|
口口③口 |⑤-⑥-|
42
①口口① |①---|
口⑥⑦口 |②-③-|
⑤口口② |④-⑤-|
口④③口 |⑥-⑦-|
43
①口口① |①---|
⑦口口② |②-③-|
口⑥③口 |④-⑤-|
⑤口口④ |⑥-⑦-|
44
①③②① |①---|
③口口② |--②-|
②口口③ |----|
口②③口 |③---|
45
①口口口 |--①-|
口②②① |--②-|
①②②口 |----|
口口口① |----|
46
⑤①口⑤ |①②③④|
口口口② |--⑤-|
口③口口
口口口④

口⑨⑧口
口⑦⑩口
⑥⑪口口 |⑥⑦⑧-|
口口⑫口 |⑨⑩⑪⑫|
47
口口口口 |--①-|
①④⑤② |②---|
③口口⑥ |③-④-|
②口口① |⑤-⑥-|
48
⑤①口⑤ |①②③④|
口口口② |--⑤-|
口③口口
口口口④

口⑨⑧口
口⑦⑩口
⑥⑪口口 |⑥⑦⑧-|
口口⑫口 |⑨⑩⑪⑫|
49
口口口③ |--①-|
②④④口 |-②--|
③④④① |③--④|
①口口② |----|
50
②口口口 |①---|
口口口② |②-③-|
②口③口
口①口②

口口⑤⑤
口口④口
口口口口 |--④-|
⑤⑤口口 |--⑤-|
51
②③口口 |--①-|
②①口口 |--②-|
口口口② |--③-|
口口④② |④---|
52
口口①口 |①---|
口③③① |②-③-|
①②②口
口①口口

⑤④⑥⑤
⑦口口⑦
口口口口 |④-⑤-|
口口口口 |⑥-⑦-|
53
口口⑦口 |①-②-|
口⑥口口 |③---|
②①⑤② |④-⑤-|
口④③口 |⑥-⑦-|
54
①口口① |①---|
口⑦⑥口 |②-③-|
②①口⑤ |④-⑤-|
口③④口 |⑥-⑦-|
55
①口口① |①---|
②口口口 |②-③-|
口③①口
口口口口

口口口口
口口口⑦
口口⑥口 |④-⑤-|
④口口⑤ |⑥-⑦-|
56
①①①① |①--②|
口口口口 |③④⑤-|
⑤口口⑤
②③④口

⑨口口⑨
口⑧⑦⑥
口口口口 |-⑥⑦⑧|
⑩口口口 |⑨--⑩|
57
口口口口 |①②③-|
④⑤⑤④ |--④-|
③口口③ |----|
口①②口 |⑤---|
58
①①①① |①---|
②⑦⑤② |②-③-|
④③③口 |④-⑤-|
⑥口⑦⑤ |⑥-⑦-|
59
①②④口 |①-②-|
③口⑥⑧ |③-④-|
⑤口②④ |⑤-⑥-|
⑦口⑧⑥ |⑦-⑧-|
60
①口⑦① |①---|
②口⑤⑦ |②-③-|
④①①③ |④-⑤-|
⑥②⑤口 |⑥-⑦-|
61
①⑦口口 |①-②-|
口①⑥口 |③---|
口⑤②口 |④-⑤-|
口③④② |⑥-⑦-|
62
①口口① |①---|
口⑥⑦口 |②-③-|
⑤口①② |④-⑤-|
口④③口 |⑥-⑦-|
63
①口口① |①---|
口口口② |②-③-|
口①③口
口口口口

口口口口
⑦口口口
口⑥口口 |④-⑤-|
⑤口口④ |⑥-⑦-|
64
①①①① |①--②|
口口口口 |③④⑤-|
⑤口口⑤
口④③②

⑨口口⑨
⑥⑦⑧口
口口口口 |-⑥⑦⑧|
口口口⑩ |⑨--⑩|
65
口口口口 |①②③-|
口④④口 |--④-|
③④④③ |----|
口②①口 |----|
66
⑤①口⑤ |①②③④|
口口口② |--⑤-|
口③口口
口口口④

口⑨⑧口
口⑦⑩口
⑥⑪口口 |⑥⑦⑧-|
口口⑫口 |⑨⑩⑪⑫|
67
口口口口 |--①-|
①④⑤② |②---|
③口口⑥ |③-④-|
②口口① |⑤-⑥-|
68
⑤①口⑤ |①②③④|
口口口② |--⑤-|
口③口口
口口口④

口⑨⑧口
口⑦⑩口
⑥⑪口口 |⑥⑦⑧-|
口口⑫口 |⑨⑩⑪⑫|
69
口口口③ |--①-|
②④④口 |-②--|
③④④① |③--④|
①口口② |----|
70
口②③口 |①---|
②口口③ |②--③|
③口口② |----|
①③②① |----|
71
②口口③ |①---|
③口口② |②--③|
②①①③
③口口②

口口⑦口
口⑥口口
口口⑤口 |----|
口④口口 |④⑤⑥⑦|
72
⑤①口⑤ |①②③④|
口口口② |--⑤-|
口③口口
口口口④

口⑨⑧口
口⑦⑩口
⑥⑪口口 |⑥⑦⑧-|
口口⑫口 |⑨⑩⑪⑫|
73
口口口③ |--①-|
②④④口 |-②--|
③④④① |③--④|
①口口② |----|
74
⑤口口④ |①---|
口口口口 |②③--|
②口口③ |--④-|
④①①⑤ |--⑤-|
75
口口口口 |---①|
②①①② |----|
口①①口 |--②-|
口口口口 |----|
76
口口口② |①---|
口口③口 |②③--|
口①①口
口口口口

④⑥⑥口
④⑥口⑥
⑥⑥口⑤ |④-⑤-|
⑥⑥口⑤ |--⑥-|

accuracy: 99.5%
最終更新:2024年09月08日 17:09