アットウィキロゴ
ATRAX
BEMANI Sound Team "HuΣeR"

BASIC

Level: 2
BPM: 128
Notes: 231

1
口口口口 |----|
口口口口 |----|
口口口口 |----|
口口口口 |----|
2
口口口口 |----|
口口口口 |----|
口口口口 |----|
口口口口 |----|
3
口口口口 |----|
口口口口 |----|
口口口口 |----|
口口口口 |----|
4
口口口口 |----|
口口口口 |----|
口口口口 |----|
口口口口 |----|
5
口口口口 |①---|
口口口口 |----|
口口口口 |----|
口口口① |----|
6
口口口口 |①---|
口口口口 |----|
口口口口 |----|
口口①口 |----|
7
口口口口 |①---|
口口口口 |----|
口口口口 |----|
口①口口 |----|
8
口口口口 |①---|
口口口口 |----|
口口口口 |----|
①口口口 |----|
9
口口口口 |①---|
口口口③ |②---|
口口口② |③---|
口口口① |----|
10
口口口口 |①---|
口口③口 |②---|
口口②口 |③---|
口口①口 |----|
11
口口口口 |①---|
口③口口 |②---|
口②口口 |③---|
口①口口 |----|
12
口口口口 |①---|
③口口口 |②---|
②口口口 |③---|
①口口口 |----|
13
口口口④ |①---|
口口口③ |②---|
口口口② |③---|
口口口① |④---|
14
口口④口 |①---|
口口③口 |②---|
口口②口 |③---|
口口①口 |④---|
15
口④口口 |①---|
口③口口 |②---|
口②口口 |③---|
口①口口 |④---|
16
④口口口 |①---|
③口口口 |②---|
②口口口 |③---|
①口口口 |④---|
17
口口口① |①---|
口口口② |②---|
口口口③ |③---|
口口口④ |④---|
18
口口①口 |①---|
口口②口 |②---|
口口③口 |③---|
口口④口 |④---|
19
口①口口 |①---|
口②口口 |②---|
口③口口 |③---|
口④口口 |④---|
20
口①①口 |①---|
口口口口 |----|
口②②口 |②---|
口口口口 |----|
21
口口口口 |①---|
②口口① |----|
口口口口 |②---|
口口口口 |----|
22
口口①口 |①---|
口②口口 |②---|
口口③口 |③---|
口④口口 |④---|
23
口口口口 |①---|
②口口① |----|
口口口口 |②---|
口口口口 |----|
24
口口口口 |①---|
口①①口 |----|
口①①口 |----|
口口口口 |----|
25
口口口口 |①---|
①口口② |----|
口口口口 |②---|
口口口口 |----|
26
口①口口 |①---|
口口②口 |②---|
口③口口 |③---|
口口④口 |④---|
27
口口口口 |①---|
①口口② |----|
口口口口 |②---|
口口口口 |----|
28
口口口口 |①---|
口①①口 |----|
口①①口 |----|
口口口口 |----|
29
口口①① |①---|
口口②② |----|
口口口口 |②---|
口口口口 |----|
30
口口口口 |①---|
口口口口 |----|
口口①① |----|
口口口口 |----|
31
①①口口 |①---|
②②口口 |----|
口口口口 |②---|
口口口口 |----|
32
口口口口 |①---|
口口口口 |----|
①①口口 |----|
口口口口 |----|
33
口口口口 |①---|
①口口① |----|
②口口② |②---|
口口口口 |----|
34
口口口口 |①---|
口口口口 |----|
口口口口 |----|
①口口① |----|
35
口口口口 |①---|
②口口② |----|
①口口① |②---|
口口口口 |----|
36
口口口口 |①---|
口①①口 |----|
口①①口 |----|
口口口口 |----|
37
口口口① |①---|
口口口口 |----|
口口口口 |----|
口口口口 |----|
38
口口口口 |----|
口口口口 |----|
口口口口 |----|
口口口口 |----|
39
①口口口 |①---|
口口口口 |----|
口口口口 |----|
口口口口 |----|
40
口口口口 |----|
口口口口 |----|
口口口口 |----|
口口口口 |----|
41
口口口① |①---|
口口口② |②---|
口口口③ |③---|
口口口口 |----|
42
口口口口 |①---|
口口③口 |②---|
口口②口 |③---|
口口①口 |----|
43
①口口口 |①---|
②口口口 |②---|
③口口口 |③---|
口口口口 |----|
44
口口口口 |①---|
口①①口 |----|
口①①口 |----|
口口口口 |----|
45
口口①① |①---|
口口②② |②---|
口口③③ |③---|
口口④④ |④---|
46
①①口口 |①---|
②②口口 |②---|
③③口口 |③---|
④④口口 |④---|
47
口口④④ |①---|
口口③③ |②---|
口口②② |③---|
口口①① |④---|
48
④④口口 |①---|
③③口口 |②---|
②②口口 |③---|
①①口口 |④---|
49
②口口② |①---|
②口口② |----|
口①①口 |②---|
口①①口 |----|
50
口①①口 |①---|
口②②口 |②---|
口③③口 |③---|
口④④口 |④---|
51
①口口① |①---|
①口口① |----|
口②②口 |②---|
口②②口 |----|
52
②②②② |①---|
①①①① |----|
口口口口 |②---|
口口口口 |----|
53
口口口口 |①---|
口④③口 |②---|
口②①口 |③---|
口口口口 |④---|
54
口口口口 |①---|
口④③口 |②---|
口②①口 |③---|
口口口口 |④---|
55
口口口口 |①---|
口④③口 |②---|
口②①口 |③---|
口口口口 |④---|
56
口口口口 |①---|
口④③口 |②---|
口②①口 |③---|
口口口口 |④---|
57
口④③口 |①---|
口④③口 |②---|
口②①口 |③---|
口②①口 |④---|
58
口④③口 |①---|
口④③口 |②---|
口②①口 |③---|
口②①口 |④---|
59
④④④④ |①---|
③③③③ |②---|
②②②② |③---|
①①①① |④---|
60
口口口口 |①---|
②口口② |----|
口①①口 |----|
口①①口 |②---|

accuracy: 100%
最終更新:2022年04月30日 17:46