アットウィキロゴ
ATRAX
BEMANI Sound Team "HuΣeR"

ADVANCED

Level: 7
BPM: 128
Notes: 498

1
口口口口 |----|
口口口口 |----|
口口口口 |----|
口口口口 |----|
2
口口口口 |----|
口口口口 |----|
口口口口 |----|
口口口口 |----|
3
口口口口 |----|
口口口口 |----|
口口口口 |----|
口口口口 |----|
4
口口口口 |----|
口口口口 |----|
口口口口 |----|
口口口口 |----|
5
②口口① |①---|
口口口口 |②---|
口口口口
①口口②

⑤口口⑤
口④③口
口③④口 |③---④|
口口口口 |--⑤-|
6
口口口口 |---①------|
口⑤⑤② |②-③-|
③口口④ |④---⑤|
口①①口 |----|
7
①口口② |①---|
口口口口 |②---|
口口口口
②口口①

⑤口口⑤
口③④口
口④③口 |③---④|
口口口口 |--⑤-|
8
口⑥口口 |---①------|
②⑤⑤口 |②-③-|
④口⑥③ |④---⑤|
口①①口 |--⑥-|
9
②口口① |①---|
口口口口 |②---|
口口口口
①口口②

⑤口口⑤
口④③口
口③④口 |③---④|
口口口口 |--⑤-|
10
口口口口 |---①------|
口⑤⑤② |②-③-|
③口口④ |④---⑤|
口①①口 |----|
11
①口口② |①---|
口口口口 |②---|
口口口口
②口口①

⑤口口⑤
口③④口
口④③口 |③---④|
口口口口 |--⑤-|
12
口口口口 |---①------|
②⑤⑤口 |②-③-|
④⑤⑤③ |④---|
口①①口 |⑤---|
13
②口口① |①---|
口口口口 |②---|
口口口口
①口口②

⑤口口⑤
④④③③
③③④④ |③---④|
口口口口 |--⑤-|
14
口口口口 |---①------|
口⑤⑤② |②-③-|
③口口④ |④---⑤|
口①①口 |----|
15
①口口② |①---|
口口口口 |②---|
口口口口
②口口①

⑤口口⑤
③③④④
④④③③ |③---④|
口口口口 |--⑤-|
16
口⑥口口 |---①------|
②⑤⑤口 |②-③-|
④口⑥③ |④---⑤|
口①①口 |--⑥-|
17
②口口① |①---|
口口口口 |②---|
口口口口
①口口②

⑤口口⑤
④④③③
③③④④ |③---④|
口口口口 |--⑤-|
18
口口口口 |---①------|
口⑤⑤② |②-③-|
③口口④ |④---⑤|
口①①口 |----|
19
①口口② |①---|
口口口口 |②---|
口口口口
②口口①

⑤口口⑤
③③④④
④④③③ |③---④|
口口口口 |--⑤-|
20
⑤口口⑤ |---①------|
②⑤⑤口 |②-③-|
④口口③ |④---|
口①①口 |⑤---|
21
口口口口 |①---|
口口口口 |②---|
口③②口 |③---|
口④①口 |④---|
22
②③③① |①---|
②口口① |②---|
口口口口 |③-④-|
④口口④ |----|
23
③口口② |①---|
口口口口 |②---|
④口口① |③---|
口口口口 |④---|
24
口口口口 |①---|
③口口③ |②---③|
口②②口 |----|
口①①口 |----|
25
口口口口 |①---|
口口口口 |②---|
口②③口 |③---|
口①④口 |④---|
26
①③③② |①---|
①口口② |②---|
口口口口 |③-④-|
④口口④ |----|
27
②口口③ |①---|
口口口口 |②---|
①口口④ |③---|
口口口口 |④---|
28
口口口口 |①---|
③口口③ |②---③|
口②②口
口①①口

口口口口
口④④口
口口口口 |----|
口④④口 |④---|
29
口①①① |①---|
口口口口 |----|
口口口口 |②---|
②②②口 |----|
30
①①①口 |①---|
口③③口 |----|
②口口② |---②------|
口口口口 |③---|
31
②②②口 |①---|
口口口口 |----|
口口口口 |②---|
口①①① |----|
32
口口口口 |①---|
②口口② |----|
②口口② |②---|
①①①口 |----|
33
①①①口 |①---|
口口口口 |----|
口口口口 |②---|
口②②② |----|
34
口①①① |①---|
口③③口 |----|
②口口② |---②------|
口口口口 |③---|
35
口②②② |①---|
口口口口 |----|
口口口口 |②---|
①①①口 |----|
36
口口口口 |①---|
③口口③ |②---③|
口②②口
口①①口

口口口口
口④④口
口口口口 |----|
口④④口 |④---|
37
口口②① |①---|
口口口口 |----|
口口口口 |②---|
口口口口 |----|
38
②①口口 |①---|
口口口口 |----|
口口口口 |②---|
口口口口 |----|
39
口口口口 |①---|
口口口口 |----|
口口口口 |②---|
①②口口 |----|
40
口口口口 |①---|
口口口口 |----|
口口口口 |②---|
口口①② |----|
41
口口③① |①---|
口口口口 |②---|
口口④② |③---|
口口口口 |④---|
42
③①口口 |①---|
口口口口 |②---|
④②口口 |③---|
口口口口 |④---|
43
口口口口 |①---|
②④口口 |②---|
口口口口 |③---|
①③口口 |④---|
44
口口口口 |①---|
④口②④ |②---|
④口口④ |③---|
口口①③ |④---|
45
②口口① |①---|
口口口口 |②---|
口口口口
①口口②

⑤口口⑤
④④③③
③③④④ |③---④|
口口口口 |--⑤-|
46
口口口口 |---①------|
口⑤⑤② |②-③-|
③口口④ |④---⑤|
口①①口 |----|
47
①口口② |①---|
口口口口 |②---|
口口口口
②口口①

⑤口口⑤
③③④④
④④③③ |③---④|
口口口口 |--⑤-|
48
口⑥口口 |---①------|
②⑤⑤口 |②-③-|
④口⑥③ |④---⑤|
口①①口 |--⑥-|
49
②口口① |①---|
口口口口 |②---|
口口口口
①口口②

⑤⑤⑤⑤
③口口③
③④④③ |③---④|
口④④口 |--⑤-|
50
口口口口 |---①------|
②⑥⑥② |②-③-|
⑤⑤④④ |④---⑤|
①③③① |--⑥-|
51
①③③② |①---|
③⑤⑤③ |②---|
④⑤⑤④ |③---④|
②④④① |--⑤-|
52
口②口① |---①------|
口口口口 |②-③-|
口口口口
口口③口

⑤口口⑤
口口口口
口④口口 |④---|
口口口口 |⑤---|
53
口⑬⑬口 |①②③④|
⑫⑪⑩⑨ |⑤⑥⑦⑧|
⑧⑦⑥⑤ |⑨⑩⑪⑫|
④③②① |⑬---|
54
口⑬⑬口 |①②③④|
⑨⑩⑪⑫ |⑤⑥⑦⑧|
⑤⑥⑦⑧ |⑨⑩⑪⑫|
①②③④ |⑬---|
55
口⑬⑬口 |①②③④|
⑫⑪⑩⑨ |⑤⑥⑦⑧|
⑧⑦⑥⑤ |⑨⑩⑪⑫|
④③②① |⑬---|
56
口⑬⑬口 |①②③④|
⑨⑩⑪⑫ |⑤⑥⑦⑧|
⑤⑥⑦⑧ |⑨⑩⑪⑫|
①②③④ |⑬---|
57
⑯⑮⑭⑬ |①②③④|
⑫⑪⑩⑨ |⑤⑥⑦⑧|
⑧⑦⑥⑤ |⑨⑩⑪⑫|
④③②① |⑬⑭⑮⑯|
58
⑯⑮⑭⑬ |①②③④|
⑫⑪⑩⑨ |⑤⑥⑦⑧|
⑧⑦⑥⑤ |⑨⑩⑪⑫|
④③②① |⑬⑭⑮⑯|
59
⑬⑭⑮⑯ |---------①-----②----③----④----|
⑨⑩⑪⑫ |---------⑤-----⑥----⑦----⑧----|
⑤⑥⑦⑧ |---------⑨-----⑩----⑪----⑫----|
①②③④ |---------⑬-----⑭----⑮----⑯----|
60
口口口口 |①---|
③口口③ |②---③|
口②②口
口①①口

口口口口
口④④口
口口口口 |----|
口④④口 |④---|

accuracy: 100%
最終更新:2022年05月01日 04:09