アットウィキロゴ
ATRAX
BEMANI Sound Team "HuΣeR"

EXTREME

Level: 9.6
BPM: 128
Notes: 644

1
口口口口 |----|
口口口口 |----|
口口口口 |----|
口口口口 |----|
2
口口口口 |----|
口口口口 |----|
口口口口 |----|
口口口口 |----|
3
口口口口 |----|
口口口口 |----|
口口口口 |----|
口口口口 |----|
4
①口口口 |----|
①口口口 |----|
①口口口 |----|
①口口口 |①---|
5
④③⑤② |①---|
口口①口 |②---|
口④③② |③---④|
口⑤①口 |--⑤-|
6
口口⑤口 |---①------|
口②③④ |②-③-|
②③④⑤ |④---⑤|
口口①口 |----|
7
②⑤③④ |①---|
口①口口 |②---|
②③④口 |③---④|
口①⑤口 |--⑤-|
8
⑥⑤口口 |---①------|
④③②⑥ |②-③-|
⑤④③② |④---⑤|
口①口口 |--⑥-|
9
④③⑤② |①---|
口口①口 |②---|
口④③② |③---④|
口⑤①口 |--⑤-|
10
口口⑤口 |---①------|
口②③④ |②-③-|
②③④⑤ |④---⑤|
口口①口 |----|
11
②⑤③④ |①---|
口①口口 |②---|
②③④口 |③---④|
口①⑤口 |--⑤-|
12
⑤口口口 |---①------|
④③②口 |②-③-|
口④③② |④---|
⑤①口口 |⑤---|
13
口口①② |①---|
口口口口 |②---|
口口口口
口口①②

④③⑤口
口口口口
口④③口 |③---④|
口⑤口口 |--⑤-|
14
口口⑤口 |---①------|
口②③④ |②-③-|
②③④口 |④---⑤|
口口①⑤ |----|
15
②①口口 |①---|
口口口口 |②---|
口口口口
②①口口

口⑤③④
口口口口
口③④口 |③---④|
口口⑤口 |--⑤-|
16
口口口口 |---①------|
口③②口 |②-③-|
口口③②
口①口口

⑥⑤口口
④口口口
口④口⑥ |④---⑤|
⑤口口口 |--⑥-|
17
口口①② |①---|
口口口口 |②---|
口口口口
口口①②

④③⑤口
口口口口
口④③口 |③---④|
口⑤口口 |--⑤-|
18
口口⑤口 |---①------|
口②③④ |②-③-|
②③④口 |④---⑤|
口口①⑤ |----|
19
②①口口 |①---|
口口口口 |②---|
口口口口
②①口口

口⑤③④
口口口口
口③④口 |③---④|
口口⑤口 |--⑤-|
20
口口口口 |---①------|
口③②口 |②-③-|
口口③②
口①口口

⑤⑤口口
④口口口
口④口口 |④---|
⑤⑤口口 |⑤---|
21
③口口口 |---①------|
口口③② |②-③-|
口②口①
口口口①

口口④⑦
口口口口
口⑧④口 |④----⑤--⑥-|
⑤口⑥口 |---⑦-⑧----|
22
口①②口 |①---|
①口口② |②---|
口口口④ |③-④-|
③③口④ |----|
23
③①口① |①---|
口口口口 |②-③-|
口③口②
口②口口

口⑤口口
口口口⑦
⑧口⑥口 |④----⑤--⑥-|
④口④口 |---⑦-⑧----|
24
⑥⑦②③ |①--②-③--④-|
口⑨口口 |⑤--⑥-⑦--⑧-|
口口⑨口 |--⑨-|
⑧⑤④① |----|
25
①⑥口⑤ |---①------|
①④②口 |②-③-|
②③⑧口 |④----⑤--⑥-|
⑦④口③ |---⑦-⑧----|
26
④口③③ |①---|
④口口口 |②---|
②口口① |③-④-|
口②①口 |----|
27
口口②口 |①---|
②口③口 |②-③-|
口口口口
①口①③

口④口④
口⑥口⑧
⑦口口口 |④----⑤--⑥-|
口口⑤口 |---⑦-⑧----|
28
①④⑤⑧ |①--②-③--④-|
口口口口 |⑤--⑥-⑦--⑧-|
口口口口
③②⑦⑥

口口口口
口⑨⑩口
口口⑨口 |--⑨-|
口⑩口口 |⑩---|
29
①①①③ |①---②|
口④④口 |③---|
口②②口 |④---⑤|
⑥⑤⑤④ |⑥---|
30
①①①③ |①---②|
口口口口 |③---|
口②②口
口口口口

⑤口⑤⑦
口口口口
口口口口 |④--⑤------|
⑥口⑥④ |⑥-⑦-|
31
口①③口 |①---②|
①④②⑤ |③---|
①④②⑤ |④---⑤|
口⑥④口 |⑥---|
32
口①③口 |①---②|
①口②口 |③---|
①口②口
口口口口

口口口④
口口口④
⑤口口口 |④---|
⑤⑤④口 |⑤---|
33
①①①③ |①---②|
①④④③ |③---|
⑥②②④ |④---⑤|
⑥⑤⑤④ |⑥---|
34
①①①③ |①---②|
①口口③ |③---|
口②②口
口口口口

⑤口⑤⑦
口口口口
⑥口口④ |④--⑤------|
⑥口⑥④ |⑥-⑦-|
35
⑤①口口 |①---②|
①①③② |③---|
⑤⑥④④ |④---⑤|
口口④② |⑥---|
36
⑥⑦②③ |①--②-③--④-|
口口口口 |⑤--⑥-⑦--⑧-|
口口口口
⑧⑤④①

口口⑩口
口⑨口口
口⑩⑨口 |--⑨-|
口口口口 |⑩---|
37
口口⑤口 |①---|
口④口② |②---|
③口口口 |③---④|
口口①口 |--⑤-|
38
①口口口 |---①------|
口口②口 |②-③-|
口口③口 |④---|
口口④口 |----|
39
口⑤口口 |①---|
②口④口 |②---|
口口口③ |③---④|
口①口口 |--⑤-|
40
口口口① |---①------|
口②口口 |②-③-|
口③口口 |④---|
口④口口 |----|
41
口口口② |①---|
口口口② |②---|
口口口口
口口①①

口口⑤口
口④口⑤
③口④口 |③---④|
口③口口 |--⑤-|
42
①①口⑥ |---①------|
④口②口 |②-③-|
③⑤③口 |④------⑤--|
②口④口 |--⑥--|
43
②口口口 |①---|
②口口口 |②---|
口口口口
①①口口

口⑤口口
⑤口④口
口④口③ |③---④|
口口③口 |--⑤-|
44
⑤口①① |---①------|
口②口④ |②-③-|
⑤③口③ |④---|
口④口② |⑤---|
45
口口①② |①---|
口口口口 |②---|
口口口口
口口①②

④③⑤口
④口③口
口④③口 |③---④|
口⑤口口 |--⑤-|
46
口口口口 |---①------|
口②③口 |②-③-|
②③口口
口口①①

口口⑤⑥
④口口④
⑥口④口 |④---⑤|
口口口⑤ |--⑥-|
47
②①口口 |①---|
口口口口 |②---|
口口口口
②①口口

口⑤③④
口③口④
口③④口 |③---④|
口口⑤口 |--⑤-|
48
口口口口 |---①------|
口③②口 |②-③-|
口口③②
①①口口

⑥⑤口口
④口口④
口④口⑥ |④---⑤|
⑤口口口 |--⑥-|
49
④③①② |①---|
⑤口口⑤ |②---|
⑤口口⑤ |③---④|
③④①② |--⑤-|
50
口②口② |---①------|
口①口口 |②-③-|
口口①口
③口③口

④口⑤⑥
口口口④
⑥口口口 |④---⑤|
口口口⑤ |--⑥-|
51
②①③④ |①---|
⑤口口⑤ |②---|
口⑤⑤口 |③---④|
②①④③ |--⑤-|
52
口②①口 |---①------|
口③口口 |②-③-|
②口口口
口①③口

⑤口口④
口口口口
口口④口 |④---|
口⑤口口 |⑤---|
53
⑥⑦⑧⑨ |①--②-③--④-|
④口②③ |⑤--------⑥-----⑦----⑧----⑨----|
口口口口
①口口⑤

口口口口
口⑯口⑰
⑭⑬⑫⑪ |⑩--------⑪-----⑫----⑬----⑭----|
口⑩⑮口 |⑮--⑯----⑰-|
54
④口②③ |①--②-③--④-|
口口口口 |⑤--------⑥-----⑦----⑧----⑨----|
⑥⑦⑧⑨
①口口⑤

口⑯⑰口
⑭⑬⑫⑪
口口口口 |⑩--------⑪-----⑫----⑬----⑭----|
口⑩⑮口 |⑮--⑯----⑰-|
55
①口口⑤ |①--②-③--④-|
⑥⑦⑧⑨ |⑤--------⑥-----⑦----⑧----⑨----|
④口②③
口口口口

口⑩⑮口
口口口口
口⑯口⑰ |⑩--------⑪-----⑫----⑬----⑭----|
⑭⑬⑫⑪ |⑮--⑯----⑰-|
56
①口口⑤ |①--②-③--④-|
④口②③ |⑤--------⑥-----⑦----⑧----⑨----|
口口口口
⑥⑦⑧⑨

口⑩⑮口
⑰口⑯口
⑭⑬⑫⑪ |⑩--------⑪-----⑫----⑬----⑭----|
口口口口 |⑮--⑯----⑰-|
57
③②口④ |①--②-③--④-|
口口口口 |⑤--------⑥-----⑦----⑧----⑨----|
⑨⑧⑦⑥
口⑤①口

⑱⑰⑯⑮
⑫⑪口⑬
口口口口 |⑩--⑪-⑫--⑬-|
⑭口口⑩ |⑭--------⑮-----⑯----⑰----⑱----|
58
口口口口 |①--②-③--④-|
⑨⑧⑦⑥ |⑤--------⑥-----⑦----⑧----⑨----|
③②口④
口⑤①口

⑫⑪口⑬
口口口口
⑱⑰⑯⑮ |⑩--⑪-⑫--⑬-|
⑭口口⑩ |⑭--------⑮-----⑯----⑰----⑱----|
59
口⑥①口 |①--------②-----③----④----⑤----|
②③④⑤ |⑥--------⑦-----⑧----⑨----⑩----|
口口口口
⑩⑨⑧⑦

⑯口口⑪
⑳⑲⑱⑰
⑫⑬⑭⑮ |⑪--------⑫-----⑬----⑭----⑮----|
口口口口 |⑯--------⑰-----⑱----⑲----⑳----|
60
⑥⑦②③ |①--②-③--④-|
口口口口 |⑤--⑥-⑦--⑧-|
口口口口
⑧⑤④①

口口⑩⑩
口⑨口口
⑩⑩⑨口 |--⑨-|
口口口口 |⑩---|

accuracy: 100%
最終更新:2022年05月02日 03:31