アットウィキロゴ
LAST OATH
BEMANI Sound Team "劇団レコ-ド"

EXTREME

Level: 10.6
BPM : 160
Notes(hold) : 808(61)

1
口口口口 |----|
口口口口 |----|
口口口口 |----|
口口口口 |----|
2
⑧口③① |①---|
⑨口②口 |②-③-|
口⑥⑤④ |④⑤⑥-|
①口<⑦ |⑦-⑧⑨|

口口口口
口口口口
口口口口
⑥口口口
3
口④口③ |①-②-|
口②V⑨ |③-④-|
①⑧口⑦ |⑤⑥⑦⑧|
口⑥①⑤ |⑨---|

口口口口
口口口口
口口口口
口口⑦口
4
口口③① |①---|
V口②口 |②-③-|
口口口口 |④⑤⑥-|
①口<口 |⑦-⑧⑨|

⑧口口口
⑨口口口
口⑥⑤④
⑥口口⑦
5
口口③② |①-②-|
口①④口 |③④⑤⑥--|
①口⑤口 |⑦-⑧-|
口口⑥口 |⑨-⑩-|

口⑦口口
口⑨口⑦
口口口⑨
口⑧口⑩
6
⑧口③① |①---|
⑨口口② |②-③-|
口⑥⑤④ |④⑤⑥-|
①口<⑦ |⑦-⑧⑨|

口口口口
口口口口
口口口口
⑥口口口
7
口④口③ |①-②-|
口②V⑨ |③-④-|
①⑧口⑦ |⑤⑥⑦⑧|
口⑥①⑤ |⑨---|

口口口口
口口口口
口口口口
口口⑦口
8
口口③① |①---|
V口②口 |②-③-|
口口口口 |④⑤⑥-|
①口<口 |⑦-⑧⑨|

⑧口口口
⑨口口口
口⑥⑤④
⑥口口⑦
9
口口③② |①-②-|
口①④口 |③④⑤⑥--|
①口⑤口 |⑦-⑧-|
口口⑥口 |⑨-⑩-|

口⑦口口
口⑨口⑦
⑩口口⑨
口⑧口口
10
⑤口口① |①-②-|
⑥⑧③④ |③-④-|
⑦②⑨口 |⑤⑥⑦---|
⑤口口① |⑧-⑨-|
11
⑦口口① |①-②-|
口口④③ |③④⑤⑥--|
⑥⑤⑨② |⑦---|
⑦⑧口① |⑧-⑨-|
12
⑤口口① |①-②-|
⑥⑧③④ |③-④-|
⑦②⑨口 |⑤⑥⑦---|
⑤口口① |⑧-⑨-|
13
⑦⑥②① |①--②③④|
⑧⑩③口 |⑤-⑥-|
⑨④⑪口 |⑦⑧⑨---|
⑦⑤⑥① |⑩-⑪-|
14
⑤口口① |①-②-|
⑥⑧③④ |③-④-|
⑦②⑨口 |⑤⑥⑦---|
⑤口口① |⑧-⑨-|
15
⑦口口① |①-②-|
口口④③ |③④⑤⑥--|
⑥⑤⑨② |⑦---|
⑦⑧口① |⑧-⑨-|
16
口③V② |①-②-|
④①⑤口 |③-④-|
口②口③ |⑤---|
⑤<④① |⑥---|

口口口口
V口⑥口
⑥口⑥<
⑥口口口
17
口①口口 |①②③-----|
口②口④ |④---|
①③①口 |⑤---|
口∧口口 |⑥-⑦-|

⑤口口口
⑦口⑥口
口⑤⑦口
口⑥口口
18
口口口② |①---|
口①口口 |②---|
口口口口 |③-④-|
口口①② |⑤-⑥-|

④③口口
⑤⑥⑤⑥
⑥⑤⑥⑤
③④口口
19
口口①< |①---|
口④口口 |----|
④②③口 |②--③|
②③①① |--④-|
20
②①口口 |①--②|
①口②口 |--③-|
口③④口 |④---|
③④口< |⑤---|

口口⑤口
口口口口
口口口口
口⑤口口
21
①④⑥② |①---|
①口口口 |②-③-|
①口口口 |④---|
口口③⑤ |⑤-⑥-|
22
口口口口 |①--②③④|
②③④⑤ |⑤-⑥-|
⑥口口口 |⑦---|
口①口口 |⑧-⑨-|

⑦⑦口口
口口口口
口口⑨口
口⑧口口
23
口④②② |①---|
口③③① |②---|
④口口口 |③---|
④口③② |④---|
24
②⑥④① |①---|
口口口① |②-③-|
口口口① |④---|
⑤③口口 |⑤-⑥-|
25
口口口口 |①--②③④|
⑤④③② |⑤-⑥-|
口口口⑥ |⑦-⑧-|
口口①口 |⑨-⑩-|

口口⑦口
口口口⑩
⑨口⑧口
口口口⑦
26
⑤③④口 |①-②-|
③①口口 |③---|
口②⑤④ |④---|
③⑤④口 |⑤---|
27
口④⑥⑥ |①---|
①②③② |②-③-|
①④口⑤ |④---|
①口③⑤ |⑤-⑥-|
28
口口口口 |①--②③④|
②③④⑤ |⑤-⑥-|
⑥口口口 |⑦---|
①①口口 |⑧-⑨-|

⑦⑦口口
口口口口
口口⑨口
口⑧口口
29
口>②② |①---|
口口口① |②-③-|
口口口口 |④-⑤-|
口口口② |⑥-⑦-|

口⑥口口
④④口
⑥<口口
⑥口④口

口口③口
口⑤口口
⑦口口口
口口口口
30
口⑥④口 |①---|
②③②① |②-③-|
口口④① |④---|
⑤③口① |⑤-⑥-|
31
口口口口 |①--②③④|
⑤④③② |⑤-⑥-|
口口口⑥ |⑦---|
口口①口 |⑧-⑨-|

口口口⑧
口口⑨口
⑦口口口
口⑦口口
32
口口口口 |①-②-|
口口口口 |③---|
口①>③ |④---|
②>③口 |⑤-⑥-|

口口口口
④⑤⑥口
口⑤口⑤
口口⑤口
33
③口口① |①-②③|
④口口② |④-⑤-|
①口④口 |⑥-⑦-|
⑤口∧口 |⑧-⑨-|

口⑧口⑨
口⑥⑧口
口⑨⑧口
口⑦口口
34
②口口口 |①②③④|
④口口① |⑤-⑥-|
口口口③ |⑦-⑧-|
⑥口>⑤ |⑨-⑩-|

口⑨口口
口⑦口⑨
口⑩口⑩
口⑧口⑨
35
③口口⑥ |①-②③|
④⑥④∧ |④-⑤-|
①口②口 |⑥-⑦-|
⑤⑦①口 |⑧-⑨-|

口⑧口⑧
口口口口
口⑨口⑧
口口⑨口
36
口口⑤< |①②③④|
④口③口 |⑤-⑥-|
②口①口 |⑦-⑧-|
⑥口口口 |⑨-⑩-|

口⑨⑧口
口⑦⑩口
口⑩⑨口
口⑧口口
37
③口口口 |①-②③|
④口口① |④-⑤-|
①口口② |⑥-⑦-|
⑤口>④ |⑧-⑨-|

口⑧口口
口⑥口口
口⑨⑧口
口⑦⑨⑦
38
③⑧⑤⑥ |①-②③|
④⑥④② |④-⑤-|
①⑨⑨① |⑥-⑦-|
⑤⑦⑧口 |⑧-⑨-|
39
①口口② |①---|
①<③① |②-③-|
④<口④ |④---|
④⑤⑤口 |⑤---|

口口口口
②口口口
⑤口口口
口口口口
40
口①口V |①-②③|
②③口① |-④⑤-|
口④⑤V |⑥⑦-⑧|
口口口① |⑨-⑩-|

⑩口⑧⑨
口口口⑧
⑥口口口
⑦口口⑧
41
口③口口 |①--②|
③②①口 |--③-|
口③②① |④---|
③②①口 |⑤---|

⑤口口<
口口口口
④口口<
口口口口

口口口口
口口口口
⑤口口口
口口口口
42
①口①口 |①--②|
②口口口 |③-④-|
口③④① |⑤-⑥-|
口②①口 |⑦-⑧⑨|

口⑦口⑤
口口口⑧
口口口⑦
⑧⑨口⑥
43
④口口口 |①--②|
∧①口口 |③-④-|
②③口口 |⑤-⑥-|
口口①口 |⑦-⑧⑨|

口⑦口口
口口⑤口
口>⑦口
⑧⑨口⑥

⑥口口口
口口口口
口口⑨口
口口口口
44
④口口④ |①--②|
口②口② |③-④-|
①③口① |⑤-⑥⑦|
口口①口 |⑧-⑨⑩|

口⑦⑦口
⑤口⑤口
口口⑨⑧
⑨⑩口⑥
45
口口口V |①--②|
V口口① |③-④-|
②③口口 |⑤-⑥-|
口口①④ |⑦-⑧⑨|

⑥⑦口⑦
⑧口⑤②
⑦口口口
⑧⑨口口
46
④⑦②⑧ |①--②|
口口⑤⑦ |③-④-|
⑧③⑥① |⑤-⑥-|
⑧口①⑤ |⑦-⑧-|
47
①③②口 |--①-|
④①口口 |--②-|
口④∧② |--③-|
口②①口 |④---|

口口④口
口口口口
口口口口
口口口口
48
①⑤⑥④ |①--②|
口③②④ |--③-|
①⑥⑤③ |④--⑤|
①②口④ |--⑥-|
49
①口口< |①--②|
①②③口 |--③-|
①口口< |④---|
①②③口 |⑤---|

口口⑤
口口口口
口口口口
口口④

③口口口
口口口口
③口口口
口口口⑤
50
口①口① |①-②③|
①口④④ |④-⑤-|
口⑤④④ |⑥-⑦-|
口②③口 |⑧-⑨⑩|

⑥口口口
⑨口口口
⑧口口口
⑦口⑩⑨
51
口口口④ |①--②|
口口①∧ |③-④-|
口口③② |⑤-⑥-|
口①口口 |⑦-⑧⑨|

口口⑦口
口⑤口口
口⑦<口
⑥口⑨⑧

口口口⑥
口口口口
口⑨口口
口口口口
52
④口口④ |①--②|
②口②口 |③-④-|
①口③① |⑤-⑥⑦|
口①口口 |⑧-⑨⑩|

口⑦⑦口
口⑤口⑤
⑧⑨口口
⑥口⑩⑨
53
V口口口 |①--②|
①口口V |③-④-|
口口③② |⑤-⑥-|
④①口口 |⑦-⑧-|

⑦口⑦⑥
②⑤口⑧
口口口⑦
口口口⑧
54
⑦④⑤④ |①-②-|
⑤⑥②⑦ |③-④-|
⑦①⑥⑤ |--⑤-|
③⑤③⑦ |⑥-⑦-|
55
口③口③ |--①-|
口∧②∧ |②-③-|
V①V口 |----|
③口③口 |④-⑤-|

⑤④④④
口口口口
口口口口
④口④口
56
口口口口 |①-②③|
口口口⑤ |④-⑤-|
④③②口 |⑥--⑦|
口①口< |--⑧-|

口⑦口⑦
⑥口口口
口口口口
⑧⑥⑧口
57
口口②口 |①-②③|
口口③V |④-⑤-|
⑤①④① |⑥---|
口口口口 |⑦---|

⑥口口⑦
⑥口口⑦
口口口⑥
口口口口
58
口⑤⑥口 |①②③-----|
④口口口 |④-⑤-|
⑦口②⑧ |⑥--⑦|
③口① |--⑧-|
59
口口口③ |①--②|
②>口④ |--③-|
口口口口 |④---|
口口①口 |⑤---|

口口口口
口口口⑤
⑤口⑤口
口⑤口口
60
③⑥口⑦ |①---|
②⑧⑤口 |②-③-|
口④⑨口 |④⑤⑥-|
①口①< |⑦-⑧⑨|

口口口口
口口口口
口口口口
口口⑥口
61
④口口口 |①-②-|
口口口③ |③-④-|
②口口口 |⑤⑥⑦⑧|
口①>① |⑨---|

口口口口
口⑨⑥口
口⑦⑧⑤
口⑨口⑦
62
③⑥口⑦ |①---|
②口⑤⑧ |②-③-|
口④⑨口 |④⑤⑥-|
①口①< |⑦-⑧⑨|

口口口口
口口口口
口口口口
口口⑥口
63
③口②口 |①-②-|
④口口口 |③④⑤⑥--|
⑤口口V |⑦-⑧-|
⑥①口① |⑨-⑩-|

口V口⑧
口口⑨口
口⑦口⑦
口口⑩口

口口口口
口口口口
口⑨口口
口口口③
64
①口⑨⑧ |①---|
口⑥口口 |②-③-|
∧⑤②③ |④⑤⑥-|
⑦④口① |⑦-⑧⑨|

⑥口口口
口口口口
口口口口
口口口口
65
口①口口 |①-②-|
口口②④ |③-④-|
①口<口 |⑤⑥⑦⑧|
口口口③ |⑨---|

口⑨口⑨
⑥⑧口口
⑦口口口
⑤⑦口口
66
①口<口 |①---|
口口口口 |②-③-|
口口②③ |④⑤⑥-|
口口口① |⑦-⑧⑨|

⑥口⑨⑧
口⑥口口
口⑤口口
⑦④口口
67
口①口口 |①-②-|
口口①口 |③④⑤⑥--|
⑥⑤④③ |⑦-⑧-|
口口口② |⑨-⑩-|

口口口口
⑧口⑨⑦
口口口口
⑩⑨⑦口
68
①①①口 |①---|
口口口口 |----|
∧∧∧① |----|
口口口① |----|
69
口口口口 |----|
口口口口 |----|
口口口口 |----|
口口口口 |----|
70
①①①口 |①---|
口口口口 |----|
口口口口 |----|
口口口口 |----|
最終更新:2019年11月28日 19:08