アットウィキロゴ
Duality
BEMANI Sound Team "Yvya"

ADVNACED

Level: 9.3
BPM: 190
Notes(hold): 622(26)

1
口口口口 |----|
口口口口 |----|
口口口口 |----|
口口口口 |----|
2
口口口口 |----|
口口口口 |----|
口口口口 |----|
口口口口 |----|
3
口口口口 |①---|
口口口口 |②---|
口口口口 |③---|
②③④① |④---|
4
口口口口 |①---|
口口口口 |②---|
①④③② |③---|
口口口口 |④---|
5
口口口口 |①---|
②③④① |②---|
口口口口 |③---|
口口口口 |④---|
6
①④③② |①---|
口口口口 |②---|
口口口口 |③---|
口口口口 |④---|
7
口口口口 |①---|
口口口口 |②---|
口口口口 |③---|
①④③② |④---|
8
口口口口 |①---|
口口口口 |②---|
②③④① |③---|
口口口口 |④---|
9
口①口① |①---|
口口口口 |----|
口口口口 |②---|
②口②口 |----|
10
①口口口 |①---|
口①口口 |----|
口口②口 |②---|
口口口② |----|
11
口口①① |①---|
④口口口 |②---|
口口口③ |③---|
②②口③ |④---|
12
①口口① |①---|
⑤③⑥② |②-③-|
④口口④ |④---|
口口口口 |⑤-⑥-|
13
①①口口 |①---|
口口口④ |②---|
③口口口 |③---|
③口②② |④---|
14
①④口① |①---|
②⑤③口 |②-③-|
口口⑥口 |④-⑤-|
口口⑦口 |⑥-⑦-|
15
口口①① |①---|
④口口口 |②---|
口口口③ |③---|
②②口③ |④---|
16
④⑦⑤② |①-②-|
口口口口 |③-④-|
口口口口 |⑤-⑥-|
⑧③①⑥ |⑦-⑧-|
17
⑦⑥⑤② |①-②-|
③口①② |③-④-|
③④①口 |⑤-⑥-|
⑧④口口 |⑦-⑧-|
18
口口⑥① |①-②-|
口口口② |③-④-|
口⑤④③ |⑤---|
口口口口 |⑥---|
19
①①口口 |①---|
口⑤口④ |②---|
③口口口 |③---|
③口②② |④-⑤-|
20
①口口① |①---|
②⑥③⑤ |②-③-|
④口口④ |④---|
口口口口 |⑤-⑥-|
21
口口①① |①---|
④口⑤口 |②---|
口口口③ |③---|
②②口③ |④-⑤-|
22
①口④① |①---|
⑥③口② |②-③-|
口口口⑤ |④-⑤-|
口⑦口口 |⑥-⑦-|
23
①①口口 |①---|
口口口④ |②---|
③口⑤口 |③---|
③口②② |④-⑤-|
24
②⑤⑦④ |①-②-|
口口口口 |③-④-|
口口口口 |⑤-⑥-|
⑥①③⑧ |⑦-⑧-|
25
②⑤⑥⑦ |①-②-|
②①口③ |③-④-|
口①④③ |⑤-⑥-|
口口④⑧ |⑦-⑧-|
26
①口口口 |①-②-|
②⑥⑤④ |③-④-|
③⑦口口 |⑤-⑥-|
口⑧口口 |⑦-⑧-|
27
口①口① |①---|
口②口口 |----|
口口①口 |②---|
②口②口 |----|
28
①口口口 |①---|
口口①② |----|
①②口口 |②---|
口口口② |----|
29
③口①② |①---|
①②③口 |--②-|
口③②① |----|
②①口③ |③---|
30
口①①口 |--①-|
口口口口 |----|
口口口口 |----|
口①①口 |----|
31
口①口① |①---|
口②口口 |----|
口口①口 |②---|
②口②口 |----|
32
①口口口 |①---|
口口①② |----|
①②口口 |②---|
口口口② |----|
33
⑤③③② |①-②-|
④口⑥口 |--③-|
口⑥口② |④---|
④①①⑤ |⑤-⑥-|
34
口口口口 |--①-|
口口口口 |----|
口口口口 |----|
口①①口 |----|
35
口③口① |①---|
②口口口 |②---|
口口口① |③---|
②口③口
36
④口口④ |①②③-|
口⑥口⑤ |④---|
③②①口 |⑤-⑥-|
口口口口
37
口口口③ |①---|
口口②口 |②---|
口口③② |③---|
口口①①
38
口口口口 |①---|
①②③口 |②---|
口口口③ |③---|
①②③口
39
①口③口 |①---|
口口口② |②---|
①口口口 |③---|
口③口②
40
④口口④ |①②③-|
⑤口⑥口 |④---|
口①②③ |⑤-⑥-|
口口口口
41
③口口口 |①---|
口②口口 |②---|
②③口口 |③---|
①①口口
42
口④口口 |①-②-|
口⑤口① |③-④-|
⑥口②口 |⑤-⑥-|
口口③口
43
口④口① |①---|
②口口③ |②-③-|
口口口① |④---|
②口④口
44
④口口④ |①②③-|
口⑥口⑤ |④---|
③②①口 |⑤-⑥-|
口口口口
45
口口口④ |①---|
口口②口 |②-③-|
口③④② |④---|
口①①①
46
口①口口 |①---|
①口口口 |②-③-|
口口口④ |④---|
②③④口
47
①口④口 |①---|
③口口② |②-③-|
①口口口 |④---|
口④口②
48
④口口④ |①②③-|
⑤口⑥口 |④---|
口①②③ |⑤-⑥-|
口口口口
49
④口口口 |①---|
口②口口 |②-③-|
②④③口 |④---|
①①①口
50
口口①口 |①---|
口口口① |②-③-|
④口口口 |④---|
④③②口
51
①<口口 |①---|
口口口口 |②---|
口口口口 |③---|
口口口口

②口口口
口口口口
口口口③
口口口②
52
口口口口 |①---|
口口>① |②---|
口口口口 |③---|
口口口口

口口口口
口②口②
口③口口
口口口口
53
口口口口 |①---|
口口口口 |②---|
口口口口 |③---|
口①<口

口口②口
口口③口
口口口口
口②口口
54
口口口口 |①---|
口口口口 |②---|
口口①< |③---|
口口口口

口口口口
口口口口
②②口
口口口口

口口口口
口口口口
口③口口
口③③口
55
――① |①---|
①――< |----|
口口口口 |----|
口口口口 |----|
56
口口口口 |----|
口口口口 |----|
口口口口 |----|
口口口口 |----|
57
口口口① |①---|
①口口口 |----|
口①①口 |----|
口口口口 |----|
58
口口口口 |----|
口口口口 |----|
口口口口 |----|
口口口口 |----|
59
口①<口 |①---|
口口口口 |②-③-|
口口口口 |--④-|
口口口口 |⑤---|

∨②口口
③口口口
口口口口
口口口口

口口口口
④口口口
⑤口口
口口口口
60
口口口口 |①-②-|
口口②口 |----|
口①∧口 |③---|
口口口口 |----|

口口口口
口口③口
口口口口
口口口口
61
①口口① |①---|
口口口口 |----|
口口口口 |----|
口口口口 |----|
62
口口口口 |----|
口口口口 |----|
口口口口 |----|
口口口口 |----|
63
口口口口 |①---|
口口①口 |--②-|
口口∧口 |----|
口口口口 |③---|

口口口口
口口口口
口口>②
口口口口

口口口口
口口口口
口口∨口
口口③口
64
口口口口 |--①-|
口口口口 |----|
口①<口 |②---|
口口口口 |----|

口口口口
口口②口
口②口②
口口②口
65
①口⑧① |①-②-|
口②口⑦ |③-④-|
③口⑥口 |⑤-⑥-|
⑤④口⑤ |⑦-⑧-|
66
⑧口口① |①-②-|
口⑦②口 |③-④-|
口③⑥口 |⑤-⑥-|
④口口⑤ |⑦-⑧-|
67
口①①口 |①---|
口口①③ |--②-|
口②③③ |----|
口②②口 |③---|
68
口②②口 |--①-|
①①口口 |----|
①口口口 |②---|
口③口口 |③---|
69
①⑧口① |①-②-|
⑦口②口 |③-④-|
口⑥口③ |⑤-⑥-|
⑤口④⑤ |⑦-⑧-|
66
①口口⑧ |①-②-|
口②⑦口 |③-④-|
口⑥③口 |⑤-⑥-|
⑤口口④ |⑦-⑧-|
71
口口口口 |①---|
口口口口 |----|
①口口① |----|
口①①口 |----|
72
口口口口 |----|
口口口口 |----|
口口口口 |----|
口口口口 |----|
73
①<口口 |①---|
口口口口 |--②-|
口口口口 |----|
口口①口 |③---|

②口口口
口口口口
②<口口
口口口口

口口口口
③<口③
③口口口
口口口口
74
⑤口①④ |--①-|
①口口口 |----|
口口口② |②-③-|
口③口口 |④-⑤-|
75
口①口口 |①---|
口口口口 |--②-|
口口口口 |----|
口口>① |③---|

口口口口
口口>②
口口口口
口口口②

口口口口
口口口③
③口③<
口口口口
76
口①口③ |--①-|
②口口口 |----|
口口①口 |②-③-|
④口口⑤ |④-⑤-|
77
①<口口 |①---|
口口口口 |--②-|
口口口口 |----|
口口①口 |③---|

②口口口
口口②口
②<口口
口口口口

口口口③
口口口口
③口口口
口口口口
78
⑥口①口 |①-②-|
⑦②⑤口 |③-④-|
口口③⑧ |⑤-⑥-|
口④口口 |⑦-⑧-|
79
④②③口 |①-②-|
⑤口口① |--③-|
①口口⑤ |④---|
③口④② |⑤---|
80
⑤口口① |①-②-③-|
口⑥②口 |④---|
口③⑦口 |⑤-⑥-⑦-|
④口口⑧ |⑧---|
81
口②口① |①-②-|
口口口⑤ |③-④-|
⑥⑦⑧口 |⑤---|
④口③口 |⑥⑦⑧-|
82
①口②口 |①-②-|
⑤口口口 |③-④-|
口⑧⑦⑥ |⑤---|
口③口④ |⑥⑦⑧-|
83
③⑦⑤① |①-②-|
⑦③①⑤ |③-④-|
口口口口 |⑤-⑥-|
⑥②④⑧ |⑦-⑧-|
84
⑥口口⑧ |①-②③|
口口⑤口 |④-⑤-|
①④③② |⑥-⑦-|
⑦口口⑨ |⑧-⑨-|
85
口①①口 |①---|
口④③② |②-③-|
⑧⑦⑥⑤ |④---|
④口口口 |⑤⑥⑦⑧|
86
口口①② |①-②-|
口⑥⑤口 |③-④-|
口⑦⑧口 |⑤-⑥-|
④③口口 |⑦-⑧-|
87
①⑥②⑦ |①-②-|
③口口⑤ |③-④-|
⑤口口③ |⑤-⑥-|
⑦④⑧① |⑦-⑧-|
88
①口①口 |①-②-|
⑤②⑦⑧ |③-④-|
⑤⑥③⑧ |⑤-⑥-|
口④口④ |⑦-⑧-|
89
①①①口 |①---|
③口口口 |--②-|
③口口口 |----|
③②②② |③---|
90
口②口① |--①-|
口口③① |----|
口④口① |②-③-|
口口⑤口 |④-⑤-|
91
①③③③ |①---|
①口口② |--②-|
①口口② |----|
口口口② |③---|
92
口口口口 |--①-|
口③⑥口 |----|
②⑤④⑦ |②-③-④-|
①①①口 |⑤-⑥-⑦-|
93
③①口② |①---|
口口口口 |--②-|
口口口口 |----|
③①口② |③---|
94
口口①口 |--①-|
―②口 |----|
口②―< |②---|
口口①口 |----|
95
口①口口 |①---|
口口①口 |----|
口①口口 |----|
口口①口 |----|
96
⑥⑦⑧⑨ |①②③④|
口口⑫⑩ |⑤-⑥⑦|
⑤⑪口⑬ |⑧⑨⑩-|
④③②① |⑪-⑫-⑬-|
97
口口口口 |①---|
口口口口 |----|
口口∨口 |----|
口口①口 |----|
98
口口口口 |----|
口口口口 |----|
口口口口 |----|
口口口口 |----|
99
口口口口 |----|
口口口口 |----|
口口口口 |----|
口口口口 |----|
100
口口口口 |①---|
口口口口 |----|
口口口口 |----|
口口①口 |----|
最終更新:2019年11月08日 02:29